  0
SECTION
  2
HEADER
  9
$ACADVER
  1
AC1015
  9
$ACADMAINTVER
 70
    20
  9
$DWGCODEPAGE
  3
ANSI_936
  9
$INSBASE
 10
0.0
 20
0.0
 30
0.0
  9
$EXTMIN
 10
1156.499846543649
 20
95.41428651642602
 30
-0.0000000000112497
  9
$EXTMAX
 10
1362.75540428898
 20
178.3272304651295
 30
0.0000000000002956
  9
$LIMMIN
 10
0.0
 20
0.0
  9
$LIMMAX
 10
12.0
 20
9.0
  9
$ORTHOMODE
 70
     1
  9
$REGENMODE
 70
     1
  9
$FILLMODE
 70
     1
  9
$QTEXTMODE
 70
     0
  9
$MIRRTEXT
 70
     0
  9
$LTSCALE
 40
1.0
  9
$ATTMODE
 70
     1
  9
$TEXTSIZE
 40
0.2
  9
$TRACEWID
 40
0.05
  9
$TEXTSTYLE
  7
STANDARD
  9
$CLAYER
  8
标注
  9
$CELTYPE
  6
ByLayer
  9
$CECOLOR
 62
   256
  9
$CELTSCALE
 40
1.0
  9
$DISPSILH
 70
     0
  9
$DIMSCALE
 40
1.0
  9
$DIMASZ
 40
0.65
  9
$DIMEXO
 40
0.88
  9
$DIMDLI
 40
0.015
  9
$DIMRND
 40
0.0
  9
$DIMDLE
 40
0.0
  9
$DIMEXE
 40
0.32
  9
$DIMTP
 40
0.0
  9
$DIMTM
 40
0.0
  9
$DIMTXT
 40
0.65
  9
$DIMCEN
 40
0.09
  9
$DIMTSZ
 40
0.0
  9
$DIMTOL
 70
     0
  9
$DIMLIM
 70
     0
  9
$DIMTIH
 70
     0
  9
$DIMTOH
 70
     0
  9
$DIMSE1
 70
     0
  9
$DIMSE2
 70
     0
  9
$DIMTAD
 70
     0
  9
$DIMZIN
 70
     8
  9
$DIMBLK
  1

  9
$DIMASO
 70
     1
  9
$DIMSHO
 70
     1
  9
$DIMPOST
  1
"
  9
$DIMAPOST
  1
"
  9
$DIMALT
 70
     0
  9
$DIMALTD
 70
     1
  9
$DIMALTF
 40
0.03937
  9
$DIMLFAC
 40
1.0
  9
$DIMTOFL
 70
     1
  9
$DIMTVP
 40
0.0
  9
$DIMTIX
 70
     0
  9
$DIMSOXD
 70
     0
  9
$DIMSAH
 70
     0
  9
$DIMBLK1
  1

  9
$DIMBLK2
  1

  9
$DIMSTYLE
  2
副本STANDARD
  9
$DIMCLRD
 70
   256
  9
$DIMCLRE
 70
   256
  9
$DIMCLRT
 70
   256
  9
$DIMTFAC
 40
1.0
  9
$DIMGAP
 40
0.3
  9
$DIMJUST
 70
     0
  9
$DIMSD1
 70
     0
  9
$DIMSD2
 70
     0
  9
$DIMTOLJ
 70
     1
  9
$DIMTZIN
 70
     8
  9
$DIMALTZ
 70
     8
  9
$DIMALTTZ
 70
     8
  9
$DIMUPT
 70
     0
  9
$DIMDEC
 70
     3
  9
$DIMTDEC
 70
     3
  9
$DIMALTU
 70
     2
  9
$DIMALTTD
 70
     1
  9
$DIMTXSTY
  7
STANDARD
  9
$DIMAUNIT
 70
     0
  9
$DIMADEC
 70
     0
  9
$DIMALTRND
 40
0.0
  9
$DIMAZIN
 70
     0
  9
$DIMDSEP
 70
    46
  9
$DIMATFIT
 70
     3
  9
$DIMFRAC
 70
     2
  9
$DIMLDRBLK
  1

  9
$DIMLUNIT
 70
     5
  9
$DIMLWD
 70
    -2
  9
$DIMLWE
 70
    -2
  9
$DIMTMOVE
 70
     2
  9
$LUNITS
 70
     2
  9
$LUPREC
 70
     4
  9
$SKETCHINC
 40
0.1
  9
$FILLETRAD
 40
0.0
  9
$AUNITS
 70
     0
  9
$AUPREC
 70
     0
  9
$MENU
  1
.
  9
$ELEVATION
 40
0.0
  9
$PELEVATION
 40
0.0
  9
$THICKNESS
 40
0.0
  9
$LIMCHECK
 70
     0
  9
$CHAMFERA
 40
0.0
  9
$CHAMFERB
 40
0.0
  9
$CHAMFERC
 40
0.0
  9
$CHAMFERD
 40
0.0
  9
$SKPOLY
 70
     0
  9
$TDCREATE
 40
2455434.724808658
  9
$TDUCREATE
 40
2455434.391475324
  9
$TDUPDATE
 40
2458562.706475289
  9
$TDUUPDATE
 40
2458562.373141956
  9
$TDINDWG
 40
0.6922960069
  9
$TDUSRTIMER
 40
0.6922790046
  9
$USRTIMER
 70
     1
  9
$ANGBASE
 50
0.0
  9
$ANGDIR
 70
     0
  9
$PDMODE
 70
     0
  9
$PDSIZE
 40
0.0
  9
$PLINEWID
 40
0.0
  9
$SPLFRAME
 70
     0
  9
$SPLINETYPE
 70
     6
  9
$SPLINESEGS
 70
     8
  9
$HANDSEED
  5
85C0
  9
$SURFTAB1
 70
     6
  9
$SURFTAB2
 70
     6
  9
$SURFTYPE
 70
     6
  9
$SURFU
 70
     6
  9
$SURFV
 70
     6
  9
$UCSBASE
  2

  9
$UCSNAME
  2

  9
$UCSORG
 10
0.0
 20
0.0
 30
0.0
  9
$UCSXDIR
 10
1.0
 20
0.0
 30
0.0
  9
$UCSYDIR
 10
0.0
 20
1.0
 30
0.0
  9
$UCSORTHOREF
  2

  9
$UCSORTHOVIEW
 70
     0
  9
$UCSORGTOP
 10
0.0
 20
0.0
 30
0.0
  9
$UCSORGBOTTOM
 10
0.0
 20
0.0
 30
0.0
  9
$UCSORGLEFT
 10
0.0
 20
0.0
 30
0.0
  9
$UCSORGRIGHT
 10
0.0
 20
0.0
 30
0.0
  9
$UCSORGFRONT
 10
0.0
 20
0.0
 30
0.0
  9
$UCSORGBACK
 10
0.0
 20
0.0
 30
0.0
  9
$PUCSBASE
  2

  9
$PUCSNAME
  2

  9
$PUCSORG
 10
0.0
 20
0.0
 30
0.0
  9
$PUCSXDIR
 10
1.0
 20
0.0
 30
0.0
  9
$PUCSYDIR
 10
0.0
 20
1.0
 30
0.0
  9
$PUCSORTHOREF
  2

  9
$PUCSORTHOVIEW
 70
     0
  9
$PUCSORGTOP
 10
0.0
 20
0.0
 30
0.0
  9
$PUCSORGBOTTOM
 10
0.0
 20
0.0
 30
0.0
  9
$PUCSORGLEFT
 10
0.0
 20
0.0
 30
0.0
  9
$PUCSORGRIGHT
 10
0.0
 20
0.0
 30
0.0
  9
$PUCSORGFRONT
 10
0.0
 20
0.0
 30
0.0
  9
$PUCSORGBACK
 10
0.0
 20
0.0
 30
0.0
  9
$USERI1
 70
     0
  9
$USERI2
 70
     0
  9
$USERI3
 70
     0
  9
$USERI4
 70
     0
  9
$USERI5
 70
     0
  9
$USERR1
 40
0.0
  9
$USERR2
 40
0.0
  9
$USERR3
 40
0.0
  9
$USERR4
 40
0.0
  9
$USERR5
 40
2.5
  9
$WORLDVIEW
 70
     1
  9
$SHADEDGE
 70
     3
  9
$SHADEDIF
 70
    70
  9
$TILEMODE
 70
     1
  9
$MAXACTVP
 70
    64
  9
$PINSBASE
 10
0.0
 20
0.0
 30
0.0
  9
$PLIMCHECK
 70
     0
  9
$PEXTMIN
 10
1.000000000000000E+20
 20
1.000000000000000E+20
 30
1.000000000000000E+20
  9
$PEXTMAX
 10
-1.000000000000000E+20
 20
-1.000000000000000E+20
 30
-1.000000000000000E+20
  9
$PLIMMIN
 10
0.0
 20
0.0
  9
$PLIMMAX
 10
12.0
 20
9.0
  9
$UNITMODE
 70
     0
  9
$VISRETAIN
 70
     1
  9
$PLINEGEN
 70
     0
  9
$PSLTSCALE
 70
     1
  9
$TREEDEPTH
 70
  3020
  9
$CMLSTYLE
  2
Standard
  9
$CMLJUST
 70
     0
  9
$CMLSCALE
 40
1.0
  9
$PROXYGRAPHICS
 70
     1
  9
$MEASUREMENT
 70
     0
  9
$CELWEIGHT
370
    -1
  9
$ENDCAPS
280
     0
  9
$JOINSTYLE
280
     0
  9
$LWDISPLAY
290
     0
  9
$INSUNITS
 70
     0
  9
$HYPERLINKBASE
  1

  9
$STYLESHEET
  1

  9
$XEDIT
290
     1
  9
$CEPSNTYPE
380
     0
  9
$PSTYLEMODE
290
     1
  9
$FINGERPRINTGUID
  2
{7BAC09DB-C4D0-41DB-8C07-4C6808ADD930}
  9
$VERSIONGUID
  2
{F2491C9E-A77B-46D9-8F53-3E5E335F794D}
  9
$EXTNAMES
290
     1
  9
$PSVPSCALE
 40
0.0
  9
$OLESTARTUP
290
     0
  0
ENDSEC
  0
SECTION
  2
CLASSES
  0
CLASS
  1
ACDBDICTIONARYWDFLT
  2
AcDbDictionaryWithDefault
  3
ObjectDBX Classes
 90
        0
280
     0
281
     0
  0
CLASS
  1
MATERIAL
  2
AcDbMaterial
  3
ObjectDBX Classes
 90
     1153
280
     0
281
     0
  0
CLASS
  1
VISUALSTYLE
  2
AcDbVisualStyle
  3
ObjectDBX Classes
 90
     4095
280
     0
281
     0
  0
CLASS
  1
SCALE
  2
AcDbScale
  3
ObjectDBX Classes
 90
     1153
280
     0
281
     0
  0
CLASS
  1
TABLESTYLE
  2
AcDbTableStyle
  3
ObjectDBX Classes
 90
     4095
280
     0
281
     0
  0
CLASS
  1
MLEADERSTYLE
  2
AcDbMLeaderStyle
  3
ACDB_MLEADERSTYLE_CLASS
 90
     4095
280
     0
281
     0
  0
CLASS
  1
VLO-VL
  2
vlo_VL
  3
VL|AutoLISP based application
 90
      129
280
     0
281
     0
  0
CLASS
  1
DICTIONARYVAR
  2
AcDbDictionaryVar
  3
ObjectDBX Classes
 90
        0
280
     0
281
     0
  0
CLASS
  1
CELLSTYLEMAP
  2
AcDbCellStyleMap
  3
ObjectDBX Classes
 90
     1152
280
     0
281
     0
  0
CLASS
  1
DIMASSOC
  2
AcDbDimAssoc
  3
"AcDbDimAssoc|Product Desc:     AcDim ARX App For Dimension|Company:          Autodesk, Inc.|WEB Address:      www.autodesk.com"
 90
        0
280
     0
281
     0
  0
CLASS
  1
SORTENTSTABLE
  2
AcDbSortentsTable
  3
ObjectDBX Classes
 90
        0
280
     0
281
     0
  0
CLASS
  1
ACDBPLACEHOLDER
  2
AcDbPlaceHolder
  3
ObjectDBX Classes
 90
        0
280
     0
281
     0
  0
CLASS
  1
LAYOUT
  2
AcDbLayout
  3
ObjectDBX Classes
 90
        0
280
     0
281
     0
  0
ENDSEC
  0
SECTION
  2
TABLES
  0
TABLE
  2
VPORT
  5
5F02
330
0
100
AcDbSymbolTable
 70
     1
  0
VPORT
  5
5F73
330
5F02
100
AcDbSymbolTableRecord
100
AcDbViewportTableRecord
  2
*ACTIVE
 70
     0
 10
0.0
 20
0.0
 11
1.0
 21
1.0
 12
1350.777694891423
 22
147.3605527913271
 13
0.0
 23
0.0
 14
0.5
 24
0.5
 15
0.5
 25
0.5
 16
0.0
 26
0.0
 36
1.0
 17
0.0
 27
0.0
 37
0.0
 40
142.0242616989536
 41
1.522756827048114
 42
50.0
 43
0.0
 44
0.0
 50
0.0
 51
0.0
 71
     0
 72
  1000
 73
     1
 74
     3
 75
     0
 76
     0
 77
     0
 78
     0
281
     0
 65
     1
110
0.0
120
0.0
130
0.0
111
1.0
121
0.0
131
0.0
112
0.0
122
1.0
132
0.0
 79
     0
146
0.0
  0
ENDTAB
  0
TABLE
  2
LTYPE
  5
5EFF
330
0
100
AcDbSymbolTable
 70
    12
  0
LTYPE
  5
5F5C
330
5EFF
100
AcDbSymbolTableRecord
100
AcDbLinetypeTableRecord
  2
ByBlock
 70
     0
  3

 72
    65
 73
     0
 40
0.0
  0
LTYPE
  5
5F5D
330
5EFF
100
AcDbSymbolTableRecord
100
AcDbLinetypeTableRecord
  2
ByLayer
 70
     0
  3

 72
    65
 73
     0
 40
0.0
  0
LTYPE
  5
5F5E
330
5EFF
100
AcDbSymbolTableRecord
100
AcDbLinetypeTableRecord
  2
CONTINUOUS
 70
     0
  3
Solid line
 72
    65
 73
     0
 40
0.0
  0
LTYPE
  5
5F74
330
5EFF
100
AcDbSymbolTableRecord
100
AcDbLinetypeTableRecord
  2
CENTER2
 70
     0
  3
Center (.5x) ___ _ ___ _ ___ _ ___ _ ___ _ ___
 72
    65
 73
     4
 40
28.575
 49
19.05
 74
     0
 49
-3.174999999999998
 74
     0
 49
3.174999999999998
 74
     0
 49
-3.174999999999998
 74
     0
  0
LTYPE
  5
5F75
330
5EFF
100
AcDbSymbolTableRecord
100
AcDbLinetypeTableRecord
  2
HIDDEN2
 70
     0
  3
Hidden (.5x) _ _ _ _ _ _ _ _ _ _ _ _ _ _ _ _ _
 72
    65
 73
     2
 40
4.762499999999998
 49
3.174999999999998
 74
     0
 49
-1.587499999999999
 74
     0
  0
LTYPE
  5
7D79
330
5EFF
100
AcDbSymbolTableRecord
100
AcDbLinetypeTableRecord
  2
ACAD_ISO02W100
 70
     0
  3
ISO dash __ __ __ __ __ __ __ __ __ __ __ __ __
 72
    65
 73
     2
 40
15.0
 49
12.0
 74
     0
 49
-3.0
 74
     0
  0
ENDTAB
  0
TABLE
  2
LAYER
  5
5EFC
102
{ACAD_XDICTIONARY
360
61B7
102
}
330
0
100
AcDbSymbolTable
 70
    14
  0
LAYER
  5
5F56
102
{ACAD_XDICTIONARY
360
60F4
102
}
330
5EFC
100
AcDbSymbolTableRecord
100
AcDbLayerTableRecord
  2
0
 70
     0
 62
     7
  6
CONTINUOUS
370
    -3
390
5F09
  0
LAYER
  5
5F72
102
{ACAD_XDICTIONARY
360
60F6
102
}
330
5EFC
100
AcDbSymbolTableRecord
100
AcDbLayerTableRecord
  2
标注
 70
     0
 62
    80
  6
CONTINUOUS
370
    -3
390
5F09
  0
LAYER
  5
5F7D
102
{ACAD_XDICTIONARY
360
60F8
102
}
330
5EFC
100
AcDbSymbolTableRecord
100
AcDbLayerTableRecord
  2
中心线
 70
     0
 62
     1
  6
CENTER2
370
    -3
390
5F09
  0
LAYER
  5
5F7E
102
{ACAD_XDICTIONARY
360
60FA
102
}
330
5EFC
100
AcDbSymbolTableRecord
100
AcDbLayerTableRecord
  2
虚线
 70
     0
 62
     4
  6
HIDDEN2
370
    -3
390
5F09
  0
LAYER
  5
5F7F
330
5EFC
100
AcDbSymbolTableRecord
100
AcDbLayerTableRecord
  2
DEFPOINTS
 70
     0
 62
     7
  6
CONTINUOUS
290
     0
370
    -3
390
5F09
  0
LAYER
  5
7BC1
102
{ACAD_XDICTIONARY
360
7BC2
102
}
330
5EFC
100
AcDbSymbolTableRecord
100
AcDbLayerTableRecord
  2
细实线
 70
     0
 62
     7
  6
CONTINUOUS
370
     9
390
5F09
  0
LAYER
  5
7D7A
330
5EFC
100
AcDbSymbolTableRecord
100
AcDbLayerTableRecord
  2
标注线
 70
     0
 62
     3
  6
CONTINUOUS
370
     9
390
5F09
  0
LAYER
  5
7D7B
102
{ACAD_XDICTIONARY
360
7D7C
102
}
330
5EFC
100
AcDbSymbolTableRecord
100
AcDbLayerTableRecord
  2
粗实线
 70
     0
 62
     7
  6
CONTINUOUS
370
     9
390
5F09
1001
ACAECLAYERSTANDARD
1000

1000

  0
LAYER
  5
7F4B
102
{ACAD_XDICTIONARY
360
7F4C
102
}
330
5EFC
100
AcDbSymbolTableRecord
100
AcDbLayerTableRecord
  2
截面层
 70
     0
 62
     6
  6
CONTINUOUS
370
    13
390
5F09
  0
ENDTAB
  0
TABLE
  2
STYLE
  5
5EFD
330
0
100
AcDbSymbolTable
 70
     6
  0
STYLE
  5
5F57
330
5EFD
100
AcDbSymbolTableRecord
100
AcDbTextStyleTableRecord
  2
STANDARD
 70
     0
 40
0.0
 41
1.0
 50
0.0
 71
     0
 42
0.2
  3
arial.ttf
  4

1001
ACAD
1000
Arial
1071
       34
  0
STYLE
  5
7D7D
330
5EFD
100
AcDbSymbolTableRecord
100
AcDbTextStyleTableRecord
  2
Arial
 70
     0
 40
0.0
 41
1.0
 50
0.0
 71
     0
 42
2.5
  3
arial.ttf
  4

1001
ACAD
1000
Arial
1071
       34
  0
STYLE
  5
80E1
330
5EFD
100
AcDbSymbolTableRecord
100
AcDbTextStyleTableRecord
  2
Roman
 70
     0
 40
0.0
 41
1.0
 50
0.0
 71
     0
 42
0.065
  3
arial.ttf
  4

1001
ACAD
1000
Arial
1071
       34
  0
ENDTAB
  0
TABLE
  2
VIEW
  5
5F00
330
0
100
AcDbSymbolTable
 70
     0
  0
ENDTAB
  0
TABLE
  2
UCS
  5
5F01
330
0
100
AcDbSymbolTable
 70
     0
  0
ENDTAB
  0
TABLE
  2
APPID
  5
5F03
330
0
100
AcDbSymbolTable
 70
    30
  0
APPID
  5
5F58
330
5F03
100
AcDbSymbolTableRecord
100
AcDbRegAppTableRecord
  2
ACAD
 70
     0
  0
APPID
  5
5F5F
330
5F03
100
AcDbSymbolTableRecord
100
AcDbRegAppTableRecord
  2
ACADANNOTATIVE
 70
     0
  0
APPID
  5
5F69
330
5F03
100
AcDbSymbolTableRecord
100
AcDbRegAppTableRecord
  2
ACAD_MLEADERVER
 70
     0
  0
APPID
  5
5F84
330
5F03
100
AcDbSymbolTableRecord
100
AcDbRegAppTableRecord
  2
ACAECLAYERSTANDARD
 70
     0
  0
APPID
  5
5F85
330
5F03
100
AcDbSymbolTableRecord
100
AcDbRegAppTableRecord
  2
ACAD_DSTYLE_DIMEXT_LENGTH
 70
     0
  0
APPID
  5
5F86
330
5F03
100
AcDbSymbolTableRecord
100
AcDbRegAppTableRecord
  2
ACAD_DSTYLE_DIMEXT_ENABLED
 70
     0
  0
APPID
  5
5F87
330
5F03
100
AcDbSymbolTableRecord
100
AcDbRegAppTableRecord
  2
ACAD_DSTYLE_DIMJOGGED_JOGA
 70
     0
  0
APPID
  5
5F88
330
5F03
100
AcDbSymbolTableRecord
100
AcDbRegAppTableRecord
  2
ACAD_DSTYLE_DIMARC_LENGTH_
 70
     0
  0
APPID
  5
5F89
330
5F03
100
AcDbSymbolTableRecord
100
AcDbRegAppTableRecord
  2
ACAD_PSEXT
 70
     0
  0
APPID
  5
5F8A
330
5F03
100
AcDbSymbolTableRecord
100
AcDbRegAppTableRecord
  2
MCAD_NO_VIS
 70
     0
  0
APPID
  5
5F8B
330
5F03
100
AcDbSymbolTableRecord
100
AcDbRegAppTableRecord
  2
ACAD_TEMP_GRAPHIC
 70
     0
  0
APPID
  5
5F8C
330
5F03
100
AcDbSymbolTableRecord
100
AcDbRegAppTableRecord
  2
AD_DRAW
 70
     0
  0
APPID
  5
5F8D
330
5F03
100
AcDbSymbolTableRecord
100
AcDbRegAppTableRecord
  2
ACATTRIBSERVICES
 70
     0
  0
APPID
  5
5F8E
330
5F03
100
AcDbSymbolTableRecord
100
AcDbRegAppTableRecord
  2
DESIGNERASSEMBLIES
 70
     0
  0
APPID
  5
5F8F
330
5F03
100
AcDbSymbolTableRecord
100
AcDbRegAppTableRecord
  2
ACADM_DIM_EDIT
 70
     0
  0
APPID
  5
5F90
330
5F03
100
AcDbSymbolTableRecord
100
AcDbRegAppTableRecord
  2
AMDT_DM_ADJ
 70
     0
  0
APPID
  5
5F91
330
5F03
100
AcDbSymbolTableRecord
100
AcDbRegAppTableRecord
  2
ACAD_DSTYLE_DIMJAG
 70
     0
  0
APPID
  5
5F92
330
5F03
100
AcDbSymbolTableRecord
100
AcDbRegAppTableRecord
  2
ACAD_DSTYLE_DIMBREAK
 70
     0
  0
APPID
  5
5F93
330
5F03
100
AcDbSymbolTableRecord
100
AcDbRegAppTableRecord
  2
ACAD_DSTYLE_DIMTALN
 70
     0
  0
APPID
  5
5F94
330
5F03
100
AcDbSymbolTableRecord
100
AcDbRegAppTableRecord
  2
GENIUS_GENODEF_13
 70
     0
  0
APPID
  5
5F95
330
5F03
100
AcDbSymbolTableRecord
100
AcDbRegAppTableRecord
  2
GENIUS_GENOBJ-N-FIL_13
 70
     0
  0
APPID
  5
5F96
330
5F03
100
AcDbSymbolTableRecord
100
AcDbRegAppTableRecord
  2
ACAD_EXEMPT_FROM_CAD_STANDARDS
 70
     0
  0
APPID
  5
5F97
330
5F03
100
AcDbSymbolTableRecord
100
AcDbRegAppTableRecord
  2
ACAD_DSTYLE_DIM_LINETYPE
 70
     0
  0
APPID
  5
5F98
330
5F03
100
AcDbSymbolTableRecord
100
AcDbRegAppTableRecord
  2
ACAD_DSTYLE_DIM_EXT1_LINETYPE
 70
     0
  0
APPID
  5
5F99
330
5F03
100
AcDbSymbolTableRecord
100
AcDbRegAppTableRecord
  2
ACAD_DSTYLE_DIM_EXT2_LINETYPE
 70
     0
  0
APPID
  5
5F9A
330
5F03
100
AcDbSymbolTableRecord
100
AcDbRegAppTableRecord
  2
ACAD_DSTYLE_DIMRADIAL_EXTENSION
 70
     0
  0
APPID
  5
6488
330
5F03
100
AcDbSymbolTableRecord
100
AcDbRegAppTableRecord
  2
AcadAnnoPO
 70
     0
  0
APPID
  5
6F89
330
5F03
100
AcDbSymbolTableRecord
100
AcDbRegAppTableRecord
  2
GENIUS_GENFIL_13
 70
     0
  0
APPID
  5
6F8A
330
5F03
100
AcDbSymbolTableRecord
100
AcDbRegAppTableRecord
  2
GENIUS_GENOBJ-N-CHA_13
 70
     0
  0
APPID
  5
7D80
330
5F03
100
AcDbSymbolTableRecord
100
AcDbRegAppTableRecord
  2
ACAD_DSTYLE_DIMJOGGED_JOGANGLE_SYMBOL
 70
     0
  0
ENDTAB
  0
TABLE
  2
DIMSTYLE
  5
5F04
330
0
100
AcDbSymbolTable
 70
    37
100
AcDbDimStyleTable
 71
     2
340
5F9B
340
5F59
  0
DIMSTYLE
105
5F59
330
5F04
100
AcDbSymbolTableRecord
100
AcDbDimStyleTableRecord
  2
STANDARD
 70
     0
 41
0.65
 73
     0
 74
     0
140
0.65
176
     3
177
     3
178
     3
271
     3
272
     3
276
     2
277
     5
279
     2
284
     8
285
     8
286
     8
340
5F57
371
    13
372
    13
1001
ACAD_DSTYLE_DIMJAG
1070
   388
1040
1.5
1001
ACAD_DSTYLE_DIMTALN
1070
   392
1070
     0
1001
ACAD_DSTYLE_DIM_LINETYPE
1070
   380
1005
5F5E
1001
ACAD_DSTYLE_DIM_EXT1_LINETYPE
1070
   381
1005
5F5E
1001
ACAD_DSTYLE_DIM_EXT2_LINETYPE
1070
   382
1005
5F5E
  0
DIMSTYLE
105
5F9B
102
{ACAD_REACTORS
330
8400
330
8401
330
8404
330
8405
330
8406
330
8407
330
8408
330
84D2
330
84D3
330
8504
330
8505
330
8542
330
854C
330
8556
102
}
330
5F04
100
AcDbSymbolTableRecord
100
AcDbDimStyleTableRecord
  2
副本STANDARD
 70
     0
  3
"
  4
"
 41
0.65
 42
0.88
 43
0.015
 44
0.32
 73
     0
 74
     0
 78
     8
140
0.65
143
0.03937
147
0.3
171
     1
172
     1
176
   256
177
   256
178
   256
271
     3
272
     3
274
     1
276
     2
277
     5
279
     2
284
     8
285
     8
286
     8
340
5F57
1001
ACAD_DSTYLE_DIMJAG
1070
   388
1040
1.5
1001
ACAD_DSTYLE_DIMTALN
1070
   392
1070
     0
  0
DIMSTYLE
105
7BC3
330
5F04
100
AcDbSymbolTableRecord
100
AcDbDimStyleTableRecord
  2
毫米英寸Standard
 70
     0
  3
mm
  4
"
 41
14.0
 42
20.0
 44
8.0
 73
     0
 74
     0
 78
     8
 79
     2
140
14.0
143
0.03937
147
8.0
170
     1
171
     3
172
     1
176
   256
177
   256
178
   256
179
     1
271
     1
272
     1
273
     7
274
     3
278
    44
340
5F57
1001
ACAD_DSTYLE_DIMBREAK
1070
   391
1040
0.125
1001
ACAD_DSTYLE_DIMJAG
1070
   388
1040
1.5
1001
ACAD_DSTYLE_DIMTALN
1070
   392
1070
     0
  0
DIMSTYLE
105
7BC4
330
5F04
100
AcDbSymbolTableRecord
100
AcDbDimStyleTableRecord
  2
inch
 70
     0
  3
"
  4
"
 41
14.0
 42
20.0
 44
8.0
 73
     0
 74
     0
 78
     8
 79
     2
140
14.0
143
0.03937
144
0.03937007874
147
8.0
171
     3
172
     1
176
   256
177
   256
178
   256
179
     1
271
     3
272
     3
273
     7
274
     3
276
     2
277
     5
278
    44
340
5F57
  0
DIMSTYLE
105
7BC5
330
5F04
100
AcDbSymbolTableRecord
100
AcDbDimStyleTableRecord
  2
毫米英寸
 70
     0
  3
mm
  4
"
 41
20.0
 42
20.0
 43
3.75
 44
5.0
 45
0.0005
 73
     0
 74
     0
 78
     8
140
20.0
141
2.5
143
0.03937007874
147
2.0
170
     1
171
     3
172
     1
176
   256
177
   256
178
   256
179
     1
271
     1
272
     1
273
     7
274
     3
276
     2
283
     0
284
     8
285
    12
340
5F57
371
     9
372
     9
1001
ACAD_DSTYLE_DIMBREAK
1070
   391
1040
3.75
1001
ACAD_DSTYLE_DIMJAG
1070
   388
1040
1.5
1001
ACAD_DSTYLE_DIMTALN
1070
   392
1070
     0
1001
ACAD_DSTYLE_DIMEXT_LENGTH
1070
   378
1040
8.0
1001
ACAD_DSTYLE_DIM_LINETYPE
1070
   380
1005
5F5D
  0
DIMSTYLE
105
7D7E
330
5F04
100
AcDbSymbolTableRecord
100
AcDbDimStyleTableRecord
  2
ISO-25
 70
     0
 41
17.0
 42
10.0
 43
3.75
 44
10.0
 73
     0
 74
     0
 78
     8
 79
     2
140
17.0
141
2.5
143
0.03937007874016
147
4.0
171
     3
172
     1
176
     3
177
     3
178
     3
271
     1
272
     1
274
     3
283
     0
284
     8
340
5F57
371
     9
372
     9
1001
ACAD_DSTYLE_DIMJAG
1070
   388
1040
1.5
1001
ACAD_DSTYLE_DIMTALN
1070
   392
1070
     0
1001
ACAD_DSTYLE_DIMEXT_LENGTH
1070
   378
1040
1.25
1001
ACAD_DSTYLE_DIMJOGGED_JOGANGLE_SYMBOL
1070
   384
1040
1.570796326794896
  0
DIMSTYLE
105
7D7F
330
5F04
100
AcDbSymbolTableRecord
100
AcDbDimStyleTableRecord
  2
英寸
 70
     0
  3
"
  4
"
 41
16.0
 42
22.0
 44
8.0
 73
     0
 74
     0
 78
     8
 79
     2
140
16.0
143
0.03937
144
0.03937007874
147
5.0
171
     3
172
     1
176
   256
177
   256
178
   256
179
     1
271
     3
272
     3
273
     7
274
     3
276
     2
277
     5
340
7D7D
371
    13
372
    13
1001
ACAD_DSTYLE_DIMBREAK
1070
   391
1040
0.125
1001
ACAD_DSTYLE_DIMJAG
1070
   388
1040
1.5
1001
ACAD_DSTYLE_DIMTALN
1070
   392
1070
     0
1001
ACAD_DSTYLE_DIMEXT_LENGTH
1070
   378
1040
8.0
1001
ACAD_DSTYLE_DIM_LINETYPE
1070
   380
1005
5F5E
1001
ACAD_DSTYLE_DIM_EXT1_LINETYPE
1070
   381
1005
5F5E
1001
ACAD_DSTYLE_DIM_EXT2_LINETYPE
1070
   382
1005
5F5E
  0
DIMSTYLE
105
7F4D
330
5F04
100
AcDbSymbolTableRecord
100
AcDbDimStyleTableRecord
  2
副本ISO-25
 70
     0
 41
15.0
 42
0.625
 43
3.75
 44
1.25
 73
     0
 77
     1
 78
     8
140
15.0
141
2.5
143
0.03937007874016
147
0.625
171
     1
172
     1
176
     6
177
     6
271
     2
272
     2
274
     1
278
    44
283
     0
284
     8
340
5F57
371
    15
372
    15
  0
DIMSTYLE
105
7F4E
330
5F04
100
AcDbSymbolTableRecord
100
AcDbDimStyleTableRecord
  2
XIAO
 70
     0
 41
3.5
 42
3.0
 43
1.0
 44
1.0
 73
     0
 74
     0
 77
     1
 78
     8
140
4.0
141
1.5
143
0.03937007874016
147
1.0
171
     3
172
     1
179
     1
271
     1
272
     1
274
     3
278
    44
283
     0
284
     8
340
5F57
  0
DIMSTYLE
105
7F4F
330
5F04
100
AcDbSymbolTableRecord
100
AcDbDimStyleTableRecord
  2
090319-
 70
     0
 41
16.0
 42
20.0
 43
1.5
 44
3.0
 73
     0
 74
     0
 77
     1
 78
     8
140
20.0
141
3.0
143
0.03937007874016
147
7.0
171
     3
172
     1
179
     1
271
     2
272
     2
274
     3
278
    44
283
     0
284
     8
340
5F57
  0
DIMSTYLE
105
7F50
330
5F04
100
AcDbSymbolTableRecord
100
AcDbDimStyleTableRecord
  2
副本 (100818)Standard
 70
     0
  4
"
 41
16.0
 42
0.0
 44
7.0
 78
     8
 79
     2
140
20.0
143
0.03937
147
5.0
171
     3
172
     1
176
   256
177
   256
178
   256
179
     1
271
     1
272
     1
273
     7
274
     3
278
    44
340
5F57
341
7F47
  0
DIMSTYLE
105
80E2
330
5F04
100
AcDbSymbolTableRecord
100
AcDbDimStyleTableRecord
  2
英寸毫米
 70
     0
  3
mm
  4
"
 41
18.0
 42
22.0
 44
8.0
 73
     0
 74
     0
 78
     8
 79
     2
140
18.0
143
0.03937
147
5.0
170
     1
171
     3
172
     1
176
   256
177
   256
178
   256
179
     1
271
     0
272
     0
273
     7
274
     3
278
    44
340
5F57
1001
ACAD_DSTYLE_DIMJOGGED_JOGANGLE_SYMBOL
1070
   384
1040
0.7853981633974483
1001
ACAD_DSTYLE_DIMJAG
1070
   388
1040
1.5
1001
ACAD_DSTYLE_DIMTALN
1070
   392
1070
     0
1001
ACAD_DSTYLE_DIMEXT_LENGTH
1070
   378
1040
8.0
  0
ENDTAB
  0
TABLE
  2
BLOCK_RECORD
  5
5EFB
330
0
100
AcDbSymbolTable
 70
   376
  0
BLOCK_RECORD
  5
5F6E
102
{ACAD_XDICTIONARY
360
654F
102
}
330
5EFB
100
AcDbSymbolTableRecord
100
AcDbBlockTableRecord
  2
*Model_Space
340
5F71
  0
BLOCK_RECORD
  5
5F6A
330
5EFB
100
AcDbSymbolTableRecord
100
AcDbBlockTableRecord
  2
*Paper_Space
340
5F6D
  0
BLOCK_RECORD
  5
7651
330
5EFB
100
AcDbSymbolTableRecord
100
AcDbBlockTableRecord
  2
*D276
340
0
  0
BLOCK_RECORD
  5
765F
330
5EFB
100
AcDbSymbolTableRecord
100
AcDbBlockTableRecord
  2
*D277
340
0
  0
BLOCK_RECORD
  5
766D
330
5EFB
100
AcDbSymbolTableRecord
100
AcDbBlockTableRecord
  2
*D278
340
0
  0
BLOCK_RECORD
  5
767B
330
5EFB
100
AcDbSymbolTableRecord
100
AcDbBlockTableRecord
  2
*D279
340
0
  0
BLOCK_RECORD
  5
7689
330
5EFB
100
AcDbSymbolTableRecord
100
AcDbBlockTableRecord
  2
*D280
340
0
  0
BLOCK_RECORD
  5
7697
330
5EFB
100
AcDbSymbolTableRecord
100
AcDbBlockTableRecord
  2
*D281
340
0
  0
BLOCK_RECORD
  5
76A5
330
5EFB
100
AcDbSymbolTableRecord
100
AcDbBlockTableRecord
  2
*D282
340
0
  0
BLOCK_RECORD
  5
76B3
330
5EFB
100
AcDbSymbolTableRecord
100
AcDbBlockTableRecord
  2
*D283
340
0
  0
BLOCK_RECORD
  5
76BD
330
5EFB
100
AcDbSymbolTableRecord
100
AcDbBlockTableRecord
  2
*D284
340
0
  0
BLOCK_RECORD
  5
76EB
330
5EFB
100
AcDbSymbolTableRecord
100
AcDbBlockTableRecord
  2
*D285
340
0
  0
BLOCK_RECORD
  5
770D
330
5EFB
100
AcDbSymbolTableRecord
100
AcDbBlockTableRecord
  2
*D286
340
0
  0
BLOCK_RECORD
  5
7745
330
5EFB
100
AcDbSymbolTableRecord
100
AcDbBlockTableRecord
  2
*D287
340
0
  0
BLOCK_RECORD
  5
774F
330
5EFB
100
AcDbSymbolTableRecord
100
AcDbBlockTableRecord
  2
*D288
340
0
  0
BLOCK_RECORD
  5
7765
330
5EFB
100
AcDbSymbolTableRecord
100
AcDbBlockTableRecord
  2
*D289
340
0
  0
BLOCK_RECORD
  5
7773
330
5EFB
100
AcDbSymbolTableRecord
100
AcDbBlockTableRecord
  2
*D290
340
0
  0
BLOCK_RECORD
  5
7781
330
5EFB
100
AcDbSymbolTableRecord
100
AcDbBlockTableRecord
  2
*D291
340
0
  0
BLOCK_RECORD
  5
779B
330
5EFB
100
AcDbSymbolTableRecord
100
AcDbBlockTableRecord
  2
*D292
340
0
  0
BLOCK_RECORD
  5
77A5
330
5EFB
100
AcDbSymbolTableRecord
100
AcDbBlockTableRecord
  2
*D293
340
0
  0
BLOCK_RECORD
  5
77AF
330
5EFB
100
AcDbSymbolTableRecord
100
AcDbBlockTableRecord
  2
*D294
340
0
  0
BLOCK_RECORD
  5
7955
330
5EFB
100
AcDbSymbolTableRecord
100
AcDbBlockTableRecord
  2
*D295
340
0
  0
BLOCK_RECORD
  5
7962
330
5EFB
100
AcDbSymbolTableRecord
100
AcDbBlockTableRecord
  2
*D296
340
0
  0
BLOCK_RECORD
  5
796F
330
5EFB
100
AcDbSymbolTableRecord
100
AcDbBlockTableRecord
  2
*D297
340
0
  0
BLOCK_RECORD
  5
797C
330
5EFB
100
AcDbSymbolTableRecord
100
AcDbBlockTableRecord
  2
*D298
340
0
  0
BLOCK_RECORD
  5
7989
330
5EFB
100
AcDbSymbolTableRecord
100
AcDbBlockTableRecord
  2
*D299
340
0
  0
BLOCK_RECORD
  5
7996
330
5EFB
100
AcDbSymbolTableRecord
100
AcDbBlockTableRecord
  2
*D300
340
0
  0
BLOCK_RECORD
  5
79A3
330
5EFB
100
AcDbSymbolTableRecord
100
AcDbBlockTableRecord
  2
*D301
340
0
  0
BLOCK_RECORD
  5
79B0
330
5EFB
100
AcDbSymbolTableRecord
100
AcDbBlockTableRecord
  2
*D302
340
0
  0
BLOCK_RECORD
  5
79B9
330
5EFB
100
AcDbSymbolTableRecord
100
AcDbBlockTableRecord
  2
*D303
340
0
  0
BLOCK_RECORD
  5
79C2
330
5EFB
100
AcDbSymbolTableRecord
100
AcDbBlockTableRecord
  2
*D304
340
0
  0
BLOCK_RECORD
  5
79CF
330
5EFB
100
AcDbSymbolTableRecord
100
AcDbBlockTableRecord
  2
*D305
340
0
  0
BLOCK_RECORD
  5
79DC
330
5EFB
100
AcDbSymbolTableRecord
100
AcDbBlockTableRecord
  2
*D306
340
0
  0
BLOCK_RECORD
  5
79E5
330
5EFB
100
AcDbSymbolTableRecord
100
AcDbBlockTableRecord
  2
*D307
340
0
  0
BLOCK_RECORD
  5
79EE
330
5EFB
100
AcDbSymbolTableRecord
100
AcDbBlockTableRecord
  2
*D308
340
0
  0
BLOCK_RECORD
  5
79FB
330
5EFB
100
AcDbSymbolTableRecord
100
AcDbBlockTableRecord
  2
*D309
340
0
  0
BLOCK_RECORD
  5
7A08
330
5EFB
100
AcDbSymbolTableRecord
100
AcDbBlockTableRecord
  2
*D310
340
0
  0
BLOCK_RECORD
  5
7A15
330
5EFB
100
AcDbSymbolTableRecord
100
AcDbBlockTableRecord
  2
*D311
340
0
  0
BLOCK_RECORD
  5
7A1E
330
5EFB
100
AcDbSymbolTableRecord
100
AcDbBlockTableRecord
  2
*D312
340
0
  0
BLOCK_RECORD
  5
7A27
330
5EFB
100
AcDbSymbolTableRecord
100
AcDbBlockTableRecord
  2
*D313
340
0
  0
BLOCK_RECORD
  5
7C8D
330
5EFB
100
AcDbSymbolTableRecord
100
AcDbBlockTableRecord
  2
*D315
340
0
  0
BLOCK_RECORD
  5
7C9B
330
5EFB
100
AcDbSymbolTableRecord
100
AcDbBlockTableRecord
  2
*D316
340
0
  0
BLOCK_RECORD
  5
7CA9
330
5EFB
100
AcDbSymbolTableRecord
100
AcDbBlockTableRecord
  2
*D317
340
0
  0
BLOCK_RECORD
  5
7CB9
330
5EFB
100
AcDbSymbolTableRecord
100
AcDbBlockTableRecord
  2
*D318
340
0
  0
BLOCK_RECORD
  5
7CC7
330
5EFB
100
AcDbSymbolTableRecord
100
AcDbBlockTableRecord
  2
*D319
340
0
  0
BLOCK_RECORD
  5
7CD5
330
5EFB
100
AcDbSymbolTableRecord
100
AcDbBlockTableRecord
  2
*D320
340
0
  0
BLOCK_RECORD
  5
7CE3
330
5EFB
100
AcDbSymbolTableRecord
100
AcDbBlockTableRecord
  2
*D321
340
0
  0
BLOCK_RECORD
  5
7CF1
330
5EFB
100
AcDbSymbolTableRecord
100
AcDbBlockTableRecord
  2
*D322
340
0
  0
BLOCK_RECORD
  5
7CFF
330
5EFB
100
AcDbSymbolTableRecord
100
AcDbBlockTableRecord
  2
*D323
340
0
  0
BLOCK_RECORD
  5
7D0F
330
5EFB
100
AcDbSymbolTableRecord
100
AcDbBlockTableRecord
  2
*D324
340
0
  0
BLOCK_RECORD
  5
7E38
330
5EFB
100
AcDbSymbolTableRecord
100
AcDbBlockTableRecord
  2
*D327
340
0
  0
BLOCK_RECORD
  5
7E46
330
5EFB
100
AcDbSymbolTableRecord
100
AcDbBlockTableRecord
  2
*D328
340
0
  0
BLOCK_RECORD
  5
7E54
330
5EFB
100
AcDbSymbolTableRecord
100
AcDbBlockTableRecord
  2
*D329
340
0
  0
BLOCK_RECORD
  5
7E62
330
5EFB
100
AcDbSymbolTableRecord
100
AcDbBlockTableRecord
  2
*D330
340
0
  0
BLOCK_RECORD
  5
7E70
330
5EFB
100
AcDbSymbolTableRecord
100
AcDbBlockTableRecord
  2
*D331
340
0
  0
BLOCK_RECORD
  5
7E7E
330
5EFB
100
AcDbSymbolTableRecord
100
AcDbBlockTableRecord
  2
*D332
340
0
  0
BLOCK_RECORD
  5
7E8C
330
5EFB
100
AcDbSymbolTableRecord
100
AcDbBlockTableRecord
  2
*D333
340
0
  0
BLOCK_RECORD
  5
7E9C
330
5EFB
100
AcDbSymbolTableRecord
100
AcDbBlockTableRecord
  2
*D334
340
0
  0
BLOCK_RECORD
  5
7EAC
330
5EFB
100
AcDbSymbolTableRecord
100
AcDbBlockTableRecord
  2
*D335
340
0
  0
BLOCK_RECORD
  5
7F47
330
5EFB
100
AcDbSymbolTableRecord
100
AcDbBlockTableRecord
  2
_Oblique
340
0
310
2800000020000000200000000100080000000000000400000000000000000000000000000000000000000000000080000080000000808000800000008000800080800000C0C0C000C0DCC000F0CAA6000020400000206000002080000020A0000020C0000020E00000400000004020000040400000406000004080000040A0
310
000040C0000040E00000600000006020000060400000606000006080000060A0000060C0000060E00000800000008020000080400000806000008080000080A0000080C0000080E00000A0000000A0200000A0400000A0600000A0800000A0A00000A0C00000A0E00000C0000000C0200000C0400000C0600000C0800000C0
310
A00000C0C00000C0E00000E0000000E0200000E0400000E0600000E0800000E0A00000E0C00000E0E00040000000400020004000400040006000400080004000A0004000C0004000E00040200000402020004020400040206000402080004020A0004020C0004020E000404000004040200040404000404060004040800040
310
40A0004040C0004040E00040600000406020004060400040606000406080004060A0004060C0004060E00040800000408020004080400040806000408080004080A0004080C0004080E00040A0000040A0200040A0400040A0600040A0800040A0A00040A0C00040A0E00040C0000040C0200040C0400040C0600040C08000
310
40C0A00040C0C00040C0E00040E0000040E0200040E0400040E0600040E0800040E0A00040E0C00040E0E00080000000800020008000400080006000800080008000A0008000C0008000E00080200000802020008020400080206000802080008020A0008020C0008020E00080400000804020008040400080406000804080
310
008040A0008040C0008040E00080600000806020008060400080606000806080008060A0008060C0008060E00080800000808020008080400080806000808080008080A0008080C0008080E00080A0000080A0200080A0400080A0600080A0800080A0A00080A0C00080A0E00080C0000080C0200080C0400080C0600080C0
310
800080C0A00080C0C00080C0E00080E0000080E0200080E0400080E0600080E0800080E0A00080E0C00080E0E000C0000000C0002000C0004000C0006000C0008000C000A000C000C000C000E000C0200000C0202000C0204000C0206000C0208000C020A000C020C000C020E000C0400000C0402000C0404000C0406000C0
310
408000C040A000C040C000C040E000C0600000C0602000C0604000C0606000C0608000C060A000C060C000C060E000C0800000C0802000C0804000C0806000C0808000C080A000C080C000C080E000C0A00000C0A02000C0A04000C0A06000C0A08000C0A0A000C0A0C000C0A0E000C0C00000C0C02000C0C04000C0C06000
310
C0C08000C0C0A000F0FBFF00A4A0A000808080000000FF0000FF000000FFFF00FF000000FF00FF00FFFF0000FFFFFF00000000000000000000000000000000000000000000000000000000000000000000FF0000000000000000000000000000000000000000000000000000000000000000FF000000000000000000000000
310
0000000000000000000000000000000000000000FF0000000000000000000000000000000000000000000000000000000000000000FF0000000000000000000000000000000000000000000000000000000000000000FF0000000000000000000000000000000000000000000000000000000000000000FF00000000000000
310
00000000000000000000000000000000000000000000000000FF0000000000000000000000000000000000000000000000000000000000000000FF0000000000000000000000000000000000000000000000000000000000000000FF0000000000000000000000000000000000000000000000000000000000000000FF0000
310
000000000000000000000000000000000000000000000000000000000000FF0000000000000000000000000000000000000000000000000000000000000000FF0000000000000000000000000000000000000000000000000000000000000000FF000000000000000000000000000000000000000000000000000000000000
310
0000FF0000000000000000000000000000000000000000000000000000000000000000FF0000000000000000000000000000000000000000000000000000000000000000FF0000000000000000000000000000000000000000000000000000000000000000FF00000000000000000000000000000000000000000000000000
310
00000000000000FF0000000000000000000000000000000000000000000000000000000000000000FF0000000000000000000000000000000000000000000000000000000000000000FF0000000000000000000000000000000000000000000000000000000000000000FF0000000000000000000000000000000000000000
310
000000000000000000000000FF0000000000000000000000000000000000000000000000000000000000000000FF0000000000000000000000000000000000000000000000000000000000000000FF0000000000000000000000000000000000000000000000000000000000000000FF000000000000000000000000000000
310
0000000000000000000000000000000000FF0000000000000000000000000000000000000000000000000000000000000000FF0000000000000000000000000000000000000000000000000000000000000000FF0000000000000000000000000000000000000000000000000000000000000000FF00000000000000000000
310
00000000000000000000000000000000000000000000FF000000000000000000000000000000000000000000000000000000000000000000
  0
BLOCK_RECORD
  5
8008
330
5EFB
100
AcDbSymbolTableRecord
100
AcDbBlockTableRecord
  2
*D338
340
0
  0
BLOCK_RECORD
  5
8016
330
5EFB
100
AcDbSymbolTableRecord
100
AcDbBlockTableRecord
  2
*D339
340
0
  0
BLOCK_RECORD
  5
8024
330
5EFB
100
AcDbSymbolTableRecord
100
AcDbBlockTableRecord
  2
*D340
340
0
  0
BLOCK_RECORD
  5
8032
330
5EFB
100
AcDbSymbolTableRecord
100
AcDbBlockTableRecord
  2
*D341
340
0
  0
BLOCK_RECORD
  5
8040
330
5EFB
100
AcDbSymbolTableRecord
100
AcDbBlockTableRecord
  2
*D342
340
0
  0
BLOCK_RECORD
  5
804E
330
5EFB
100
AcDbSymbolTableRecord
100
AcDbBlockTableRecord
  2
*D343
340
0
  0
BLOCK_RECORD
  5
805C
330
5EFB
100
AcDbSymbolTableRecord
100
AcDbBlockTableRecord
  2
*D344
340
0
  0
BLOCK_RECORD
  5
8076
330
5EFB
100
AcDbSymbolTableRecord
100
AcDbBlockTableRecord
  2
*D345
340
0
  0
BLOCK_RECORD
  5
8080
330
5EFB
100
AcDbSymbolTableRecord
100
AcDbBlockTableRecord
  2
*D346
340
0
  0
BLOCK_RECORD
  5
8090
330
5EFB
100
AcDbSymbolTableRecord
100
AcDbBlockTableRecord
  2
*D347
340
0
  0
BLOCK_RECORD
  5
81F8
330
5EFB
100
AcDbSymbolTableRecord
100
AcDbBlockTableRecord
  2
*D349
340
0
  0
BLOCK_RECORD
  5
8206
330
5EFB
100
AcDbSymbolTableRecord
100
AcDbBlockTableRecord
  2
*D350
340
0
  0
BLOCK_RECORD
  5
821E
330
5EFB
100
AcDbSymbolTableRecord
100
AcDbBlockTableRecord
  2
*D351
340
0
  0
BLOCK_RECORD
  5
822C
330
5EFB
100
AcDbSymbolTableRecord
100
AcDbBlockTableRecord
  2
*D352
340
0
  0
BLOCK_RECORD
  5
823A
330
5EFB
100
AcDbSymbolTableRecord
100
AcDbBlockTableRecord
  2
*D353
340
0
  0
BLOCK_RECORD
  5
8248
330
5EFB
100
AcDbSymbolTableRecord
100
AcDbBlockTableRecord
  2
*D354
340
0
  0
BLOCK_RECORD
  5
8256
330
5EFB
100
AcDbSymbolTableRecord
100
AcDbBlockTableRecord
  2
*D355
340
0
  0
BLOCK_RECORD
  5
8264
330
5EFB
100
AcDbSymbolTableRecord
100
AcDbBlockTableRecord
  2
*D356
340
0
  0
BLOCK_RECORD
  5
82AC
330
5EFB
100
AcDbSymbolTableRecord
100
AcDbBlockTableRecord
  2
*D357
340
0
  0
BLOCK_RECORD
  5
82DA
330
5EFB
100
AcDbSymbolTableRecord
100
AcDbBlockTableRecord
  2
*D358
340
0
  0
BLOCK_RECORD
  5
82E4
330
5EFB
100
AcDbSymbolTableRecord
100
AcDbBlockTableRecord
  2
*D359
340
0
  0
BLOCK_RECORD
  5
8409
330
5EFB
100
AcDbSymbolTableRecord
100
AcDbBlockTableRecord
  2
*D360
340
0
  0
BLOCK_RECORD
  5
8416
330
5EFB
100
AcDbSymbolTableRecord
100
AcDbBlockTableRecord
  2
*D361
340
0
  0
BLOCK_RECORD
  5
8423
330
5EFB
100
AcDbSymbolTableRecord
100
AcDbBlockTableRecord
  2
*D362
340
0
  0
BLOCK_RECORD
  5
8430
330
5EFB
100
AcDbSymbolTableRecord
100
AcDbBlockTableRecord
  2
*D363
340
0
  0
BLOCK_RECORD
  5
843D
330
5EFB
100
AcDbSymbolTableRecord
100
AcDbBlockTableRecord
  2
*D364
340
0
  0
BLOCK_RECORD
  5
844A
330
5EFB
100
AcDbSymbolTableRecord
100
AcDbBlockTableRecord
  2
*D365
340
0
  0
BLOCK_RECORD
  5
8457
330
5EFB
100
AcDbSymbolTableRecord
100
AcDbBlockTableRecord
  2
*D366
340
0
  0
BLOCK_RECORD
  5
8464
330
5EFB
100
AcDbSymbolTableRecord
100
AcDbBlockTableRecord
  2
*D367
340
0
  0
BLOCK_RECORD
  5
846D
330
5EFB
100
AcDbSymbolTableRecord
100
AcDbBlockTableRecord
  2
*D368
340
0
  0
BLOCK_RECORD
  5
84D4
330
5EFB
100
AcDbSymbolTableRecord
100
AcDbBlockTableRecord
  2
*D369
340
0
  0
BLOCK_RECORD
  5
84E1
330
5EFB
100
AcDbSymbolTableRecord
100
AcDbBlockTableRecord
  2
*D370
340
0
  0
BLOCK_RECORD
  5
8506
330
5EFB
100
AcDbSymbolTableRecord
100
AcDbBlockTableRecord
  2
*D371
340
0
  0
BLOCK_RECORD
  5
8513
330
5EFB
100
AcDbSymbolTableRecord
100
AcDbBlockTableRecord
  2
*D372
340
0
  0
BLOCK_RECORD
  5
8543
330
5EFB
100
AcDbSymbolTableRecord
100
AcDbBlockTableRecord
  2
*D373
340
0
  0
BLOCK_RECORD
  5
854D
330
5EFB
100
AcDbSymbolTableRecord
100
AcDbBlockTableRecord
  2
*D374
340
0
  0
BLOCK_RECORD
  5
8557
330
5EFB
100
AcDbSymbolTableRecord
100
AcDbBlockTableRecord
  2
*D375
340
0
  0
ENDTAB
  0
ENDSEC
  0
SECTION
  2
BLOCKS
  0
BLOCK
  5
5F6F
330
5F6E
100
AcDbEntity
  8
0
100
AcDbBlockBegin
  2
*Model_Space
 70
     0
 10
0.0
 20
0.0
 30
0.0
  3
*Model_Space
  1

  0
ENDBLK
  5
5F70
330
5F6E
100
AcDbEntity
  8
0
100
AcDbBlockEnd
  0
BLOCK
  5
5F6B
330
5F6A
100
AcDbEntity
 67
     1
  8
0
100
AcDbBlockBegin
  2
*Paper_Space
 70
     0
 10
0.0
 20
0.0
 30
0.0
  3
*Paper_Space
  1

  0
ENDBLK
  5
5F6C
330
5F6A
100
AcDbEntity
 67
     1
  8
0
100
AcDbBlockEnd
  0
BLOCK
  5
7652
330
7651
100
AcDbEntity
  8
0
100
AcDbBlockBegin
  2
*D276
 70
     1
 10
0.0
 20
0.0
 30
0.0
  3
*D276
  1

  0
LINE
  5
77CA
330
7651
100
AcDbEntity
  8
标注
370
    -2
100
AcDbLine
 10
1094.219037908409
 20
138.162998433621
 30
0.0
 11
1094.219037908409
 21
135.1913252291895
 31
0.0
  0
LINE
  5
77CB
330
7651
100
AcDbEntity
  8
标注
370
    -2
100
AcDbLine
 10
1112.219037908332
 20
138.162998433621
 30
0.0
 11
1112.219037908332
 21
135.1913252291895
 31
0.0
  0
LINE
  5
77CC
330
7651
100
AcDbEntity
  8
标注
370
    -2
100
AcDbLine
 10
1094.869037908409
 20
135.5113252291895
 30
0.0
 11
1102.323574061167
 21
135.5113252291895
 31
0.0
  0
LINE
  5
77CD
330
7651
100
AcDbEntity
  8
标注
370
    -2
100
AcDbLine
 10
1111.569037908331
 20
135.5113252291895
 30
0.0
 11
1104.114501755574
 21
135.5113252291895
 31
0.0
  0
SOLID
  5
77CE
330
7651
100
AcDbEntity
  8
标注
100
AcDbTrace
 10
1094.869037908409
 20
135.6196585625228
 30
0.0
 11
1094.869037908409
 21
135.4029918958562
 31
0.0
 12
1094.219037908409
 22
135.5113252291895
 32
0.0
 13
1094.219037908409
 23
135.5113252291895
 33
0.0
  0
SOLID
  5
77CF
330
7651
100
AcDbEntity
  8
标注
100
AcDbTrace
 10
1111.569037908331
 20
135.6196585625228
 30
0.0
 11
1111.569037908331
 21
135.4029918958562
 31
0.0
 12
1112.219037908332
 22
135.5113252291895
 32
0.0
 13
1112.219037908332
 23
135.5113252291895
 33
0.0
  0
MTEXT
  5
77D0
330
7651
100
AcDbEntity
  8
标注
100
AcDbMText
 10
1103.21903790837
 20
135.5113252291895
 30
0.0
 40
0.65
 41
0.0
 71
     5
 72
     1
  1
\A1;18"
 73
     1
 44
1.0
1001
ACAD
1000
MTEXTBEGIN
1070
    73
1070
     1
1070
    44
1040
1.0
1070
    74
1070
     0
1000
MTEXTEND
  0
POINT
  5
77D1
330
7651
100
AcDbEntity
  8
DEFPOINTS
 62
     0
100
AcDbPoint
 10
1094.219037908409
 20
139.0429984336211
 30
0.0
  0
POINT
  5
77D2
330
7651
100
AcDbEntity
  8
DEFPOINTS
 62
     0
100
AcDbPoint
 10
1112.219037908332
 20
139.0429984336211
 30
0.0
  0
POINT
  5
77D3
330
7651
100
AcDbEntity
  8
DEFPOINTS
 62
     0
100
AcDbPoint
 10
1112.219037908332
 20
135.5113252291895
 30
0.0
  0
ENDBLK
  5
7653
330
7651
100
AcDbEntity
  8
0
100
AcDbBlockEnd
  0
BLOCK
  5
7660
330
765F
100
AcDbEntity
  8
0
100
AcDbBlockBegin
  2
*D277
 70
     1
 10
0.0
 20
0.0
 30
0.0
  3
*D277
  1

  0
LINE
  5
77D4
330
765F
100
AcDbEntity
  8
标注
370
    -2
100
AcDbLine
 10
1113.219037908341
 20
138.162998433621
 30
0.0
 11
1113.219037908341
 21
135.1913252291895
 31
0.0
  0
LINE
  5
77D5
330
765F
100
AcDbEntity
  8
标注
370
    -2
100
AcDbLine
 10
1124.219037908293
 20
138.162998433621
 30
0.0
 11
1124.219037908293
 21
135.1913252291895
 31
0.0
  0
LINE
  5
77D6
330
765F
100
AcDbEntity
  8
标注
370
    -2
100
AcDbLine
 10
1113.869037908341
 20
135.5113252291895
 30
0.0
 11
1117.823574061114
 21
135.5113252291895
 31
0.0
  0
LINE
  5
77D7
330
765F
100
AcDbEntity
  8
标注
370
    -2
100
AcDbLine
 10
1123.569037908293
 20
135.5113252291895
 30
0.0
 11
1119.61450175552
 21
135.5113252291895
 31
0.0
  0
SOLID
  5
77D8
330
765F
100
AcDbEntity
  8
标注
100
AcDbTrace
 10
1113.869037908341
 20
135.6196585625228
 30
0.0
 11
1113.869037908341
 21
135.4029918958562
 31
0.0
 12
1113.219037908341
 22
135.5113252291895
 32
0.0
 13
1113.219037908341
 23
135.5113252291895
 33
0.0
  0
SOLID
  5
77D9
330
765F
100
AcDbEntity
  8
标注
100
AcDbTrace
 10
1123.569037908293
 20
135.6196585625228
 30
0.0
 11
1123.569037908293
 21
135.4029918958562
 31
0.0
 12
1124.219037908293
 22
135.5113252291895
 32
0.0
 13
1124.219037908293
 23
135.5113252291895
 33
0.0
  0
MTEXT
  5
77DA
330
765F
100
AcDbEntity
  8
标注
100
AcDbMText
 10
1118.719037908317
 20
135.5113252291895
 30
0.0
 40
0.65
 41
0.0
 71
     5
 72
     1
  1
\A1;11"
 73
     1
 44
1.0
1001
ACAD
1000
MTEXTBEGIN
1070
    73
1070
     1
1070
    44
1040
1.0
1070
    74
1070
     0
1000
MTEXTEND
  0
POINT
  5
77DB
330
765F
100
AcDbEntity
  8
DEFPOINTS
 62
     0
100
AcDbPoint
 10
1113.219037908341
 20
139.0429984336211
 30
0.0
  0
POINT
  5
77DC
330
765F
100
AcDbEntity
  8
DEFPOINTS
 62
     0
100
AcDbPoint
 10
1124.219037908293
 20
139.0429984336211
 30
0.0
  0
POINT
  5
77DD
330
765F
100
AcDbEntity
  8
DEFPOINTS
 62
     0
100
AcDbPoint
 10
1124.219037908293
 20
135.5113252291895
 30
0.0
  0
ENDBLK
  5
7661
330
765F
100
AcDbEntity
  8
0
100
AcDbBlockEnd
  0
BLOCK
  5
766E
330
766D
100
AcDbEntity
  8
0
100
AcDbBlockBegin
  2
*D278
 70
     1
 10
0.0
 20
0.0
 30
0.0
  3
*D278
  1

  0
LINE
  5
77DE
330
766D
100
AcDbEntity
  8
标注
370
    -2
100
AcDbLine
 10
1093.732738695828
 20
138.6492976462309
 30
0.0
 11
1090.728333272927
 21
138.6492976462309
 31
0.0
  0
LINE
  5
77DF
330
766D
100
AcDbEntity
  8
标注
370
    -2
100
AcDbLine
 10
1093.732738695828
 20
156.6492976461727
 30
0.0
 11
1090.728333272927
 21
156.6492976461727
 31
0.0
  0
LINE
  5
77E0
330
766D
100
AcDbEntity
  8
标注
370
    -2
100
AcDbLine
 10
1091.048333272927
 20
139.2992976462309
 30
0.0
 11
1091.048333272927
 21
146.7538337989986
 31
0.0
  0
LINE
  5
77E1
330
766D
100
AcDbEntity
  8
标注
370
    -2
100
AcDbLine
 10
1091.048333272927
 20
155.9992976461727
 30
0.0
 11
1091.048333272927
 21
148.5447614934051
 31
0.0
  0
SOLID
  5
77E2
330
766D
100
AcDbEntity
  8
标注
100
AcDbTrace
 10
1090.939999939593
 20
139.2992976462309
 30
0.0
 11
1091.15666660626
 21
139.2992976462309
 31
0.0
 12
1091.048333272927
 22
138.6492976462309
 32
0.0
 13
1091.048333272927
 23
138.6492976462309
 33
0.0
  0
SOLID
  5
77E3
330
766D
100
AcDbEntity
  8
标注
100
AcDbTrace
 10
1090.939999939593
 20
155.9992976461727
 30
0.0
 11
1091.15666660626
 21
155.9992976461727
 31
0.0
 12
1091.048333272927
 22
156.6492976461727
 32
0.0
 13
1091.048333272927
 23
156.6492976461727
 33
0.0
  0
MTEXT
  5
77E4
330
766D
100
AcDbEntity
  8
标注
100
AcDbMText
 10
1091.048333272927
 20
147.649297646202
 30
0.0
 40
0.65
 41
0.0
 71
     5
 72
     1
  1
\A1;18"
 11
0.0000000000000001
 21
1.0
 31
0.0
 73
     1
 44
1.0
1001
ACAD
1000
MTEXTBEGIN
1070
    73
1070
     1
1070
    44
1040
1.0
1070
    74
1070
     0
1000
MTEXTEND
  0
POINT
  5
77E5
330
766D
100
AcDbEntity
  8
DEFPOINTS
 62
     0
100
AcDbPoint
 10
1094.612738695828
 20
138.6492976462309
 30
0.0
  0
POINT
  5
77E6
330
766D
100
AcDbEntity
  8
DEFPOINTS
 62
     0
100
AcDbPoint
 10
1094.612738695828
 20
156.6492976461727
 30
0.0
  0
POINT
  5
77E7
330
766D
100
AcDbEntity
  8
DEFPOINTS
 62
     0
100
AcDbPoint
 10
1091.048333272927
 20
156.6492976461727
 30
0.0
  0
ENDBLK
  5
766F
330
766D
100
AcDbEntity
  8
0
100
AcDbBlockEnd
  0
BLOCK
  5
767C
330
767B
100
AcDbEntity
  8
0
100
AcDbBlockBegin
  2
*D279
 70
     1
 10
0.0
 20
0.0
 30
0.0
  3
*D279
  1

  0
LINE
  5
77E8
330
767B
100
AcDbEntity
  8
标注
370
    -2
100
AcDbLine
 10
1093.339037908409
 20
137.6492976462309
 30
0.0
 11
1088.629100061997
 21
137.6492976462309
 31
0.0
  0
LINE
  5
77E9
330
767B
100
AcDbEntity
  8
标注
370
    -2
100
AcDbLine
 10
1093.339037908296
 20
157.6492976461445
 30
0.0
 11
1088.629100061997
 21
157.6492976461445
 31
0.0
  0
LINE
  5
77EA
330
767B
100
AcDbEntity
  8
标注
370
    -2
100
AcDbLine
 10
1088.949100061997
 20
138.2992976462309
 30
0.0
 11
1088.949100061997
 21
146.7176980554646
 31
0.0
  0
LINE
  5
77EB
330
767B
100
AcDbEntity
  8
标注
370
    -2
100
AcDbLine
 10
1088.949100061997
 20
156.9992976461445
 30
0.0
 11
1088.949100061997
 21
148.5808972369108
 31
0.0
  0
SOLID
  5
77EC
330
767B
100
AcDbEntity
  8
标注
100
AcDbTrace
 10
1088.840766728663
 20
138.2992976462309
 30
0.0
 11
1089.05743339533
 21
138.2992976462309
 31
0.0
 12
1088.949100061997
 22
137.6492976462309
 32
0.0
 13
1088.949100061997
 23
137.6492976462309
 33
0.0
  0
SOLID
  5
77ED
330
767B
100
AcDbEntity
  8
标注
100
AcDbTrace
 10
1088.840766728663
 20
156.9992976461445
 30
0.0
 11
1089.05743339533
 21
156.9992976461445
 31
0.0
 12
1088.949100061997
 22
157.6492976461445
 32
0.0
 13
1088.949100061997
 23
157.6492976461445
 33
0.0
  0
MTEXT
  5
77EE
330
767B
100
AcDbEntity
  8
标注
100
AcDbMText
 10
1088.949100061997
 20
147.6492976461879
 30
0.0
 40
0.65
 41
0.0
 71
     5
 72
     1
  1
\A1;20"
 11
0.0000000000000001
 21
1.0
 31
0.0
 73
     1
 44
1.0
1001
ACAD
1000
MTEXTBEGIN
1070
    73
1070
     1
1070
    44
1040
1.0
1070
    74
1070
     0
1000
MTEXTEND
  0
POINT
  5
77EF
330
767B
100
AcDbEntity
  8
DEFPOINTS
 62
     0
100
AcDbPoint
 10
1094.219037908409
 20
137.6492976462309
 30
0.0
  0
POINT
  5
77F0
330
767B
100
AcDbEntity
  8
DEFPOINTS
 62
     0
100
AcDbPoint
 10
1094.219037908296
 20
157.6492976461445
 30
0.0
  0
POINT
  5
77F1
330
767B
100
AcDbEntity
  8
DEFPOINTS
 62
     0
100
AcDbPoint
 10
1088.949100061997
 20
157.6492976461445
 30
0.0
  0
ENDBLK
  5
767D
330
767B
100
AcDbEntity
  8
0
100
AcDbBlockEnd
  0
BLOCK
  5
768A
330
7689
100
AcDbEntity
  8
0
100
AcDbBlockBegin
  2
*D280
 70
     1
 10
0.0
 20
0.0
 30
0.0
  3
*D280
  1

  0
LINE
  5
77F2
330
7689
100
AcDbEntity
  8
标注
370
    -2
100
AcDbLine
 10
1124.705337120903
 20
138.6492976462309
 30
0.0
 11
1127.230265449214
 21
138.6492976462309
 31
0.0
  0
LINE
  5
77F3
330
7689
100
AcDbEntity
  8
标注
370
    -2
100
AcDbLine
 10
1124.705337120903
 20
153.6492976461727
 30
0.0
 11
1127.230265449214
 21
153.6492976461727
 31
0.0
  0
LINE
  5
77F4
330
7689
100
AcDbEntity
  8
标注
370
    -2
100
AcDbLine
 10
1126.910265449214
 20
139.2992976462309
 30
0.0
 11
1126.910265449214
 21
145.2538337989986
 31
0.0
  0
LINE
  5
77F5
330
7689
100
AcDbEntity
  8
标注
370
    -2
100
AcDbLine
 10
1126.910265449214
 20
152.9992976461727
 30
0.0
 11
1126.910265449214
 21
147.0447614934051
 31
0.0
  0
SOLID
  5
77F6
330
7689
100
AcDbEntity
  8
标注
100
AcDbTrace
 10
1126.801932115881
 20
139.2992976462309
 30
0.0
 11
1127.018598782548
 21
139.2992976462309
 31
0.0
 12
1126.910265449214
 22
138.6492976462309
 32
0.0
 13
1126.910265449214
 23
138.6492976462309
 33
0.0
  0
SOLID
  5
77F7
330
7689
100
AcDbEntity
  8
标注
100
AcDbTrace
 10
1126.801932115881
 20
152.9992976461727
 30
0.0
 11
1127.018598782548
 21
152.9992976461727
 31
0.0
 12
1126.910265449214
 22
153.6492976461727
 32
0.0
 13
1126.910265449214
 23
153.6492976461727
 33
0.0
  0
MTEXT
  5
77F8
330
7689
100
AcDbEntity
  8
标注
100
AcDbMText
 10
1126.910265449214
 20
146.149297646202
 30
0.0
 40
0.65
 41
0.0
 71
     5
 72
     1
  1
\A1;15"
 11
0.0000000000000001
 21
1.0
 31
0.0
 73
     1
 44
1.0
1001
ACAD
1000
MTEXTBEGIN
1070
    73
1070
     1
1070
    44
1040
1.0
1070
    74
1070
     0
1000
MTEXTEND
  0
POINT
  5
77F9
330
7689
100
AcDbEntity
  8
DEFPOINTS
 62
     0
100
AcDbPoint
 10
1123.825337120903
 20
138.6492976462309
 30
0.0
  0
POINT
  5
77FA
330
7689
100
AcDbEntity
  8
DEFPOINTS
 62
     0
100
AcDbPoint
 10
1123.825337120903
 20
153.6492976461727
 30
0.0
  0
POINT
  5
77FB
330
7689
100
AcDbEntity
  8
DEFPOINTS
 62
     0
100
AcDbPoint
 10
1126.910265449214
 20
153.6492976461727
 30
0.0
  0
ENDBLK
  5
768B
330
7689
100
AcDbEntity
  8
0
100
AcDbBlockEnd
  0
BLOCK
  5
7698
330
7697
100
AcDbEntity
  8
0
100
AcDbBlockBegin
  2
*D281
 70
     1
 10
0.0
 20
0.0
 30
0.0
  3
*D281
  1

  0
LINE
  5
77FC
330
7697
100
AcDbEntity
  8
标注
370
    -2
100
AcDbLine
 10
1125.099037908293
 20
137.6492976462309
 30
0.0
 11
1128.947244791557
 21
137.6492976462309
 31
0.0
  0
LINE
  5
77FD
330
7697
100
AcDbEntity
  8
标注
370
    -2
100
AcDbLine
 10
1125.099037908293
 20
154.6492976461727
 30
0.0
 11
1128.947244791557
 21
154.6492976461727
 31
0.0
  0
LINE
  5
77FE
330
7697
100
AcDbEntity
  8
标注
370
    -2
100
AcDbLine
 10
1128.627244791557
 20
138.2992976462309
 30
0.0
 11
1128.627244791557
 21
145.2538337989986
 31
0.0
  0
LINE
  5
77FF
330
7697
100
AcDbEntity
  8
标注
370
    -2
100
AcDbLine
 10
1128.627244791557
 20
153.9992976461727
 30
0.0
 11
1128.627244791557
 21
147.0447614934051
 31
0.0
  0
SOLID
  5
7800
330
7697
100
AcDbEntity
  8
标注
100
AcDbTrace
 10
1128.518911458224
 20
138.2992976462309
 30
0.0
 11
1128.735578124891
 21
138.2992976462309
 31
0.0
 12
1128.627244791557
 22
137.6492976462309
 32
0.0
 13
1128.627244791557
 23
137.6492976462309
 33
0.0
  0
SOLID
  5
7801
330
7697
100
AcDbEntity
  8
标注
100
AcDbTrace
 10
1128.518911458224
 20
153.9992976461727
 30
0.0
 11
1128.735578124891
 21
153.9992976461727
 31
0.0
 12
1128.627244791557
 22
154.6492976461727
 32
0.0
 13
1128.627244791557
 23
154.6492976461727
 33
0.0
  0
MTEXT
  5
7802
330
7697
100
AcDbEntity
  8
标注
100
AcDbMText
 10
1128.627244791557
 20
146.149297646202
 30
0.0
 40
0.65
 41
0.0
 71
     5
 72
     1
  1
\A1;17"
 11
0.0000000000000001
 21
1.0
 31
0.0
 73
     1
 44
1.0
1001
ACAD
1000
MTEXTBEGIN
1070
    73
1070
     1
1070
    44
1040
1.0
1070
    74
1070
     0
1000
MTEXTEND
  0
POINT
  5
7803
330
7697
100
AcDbEntity
  8
DEFPOINTS
 62
     0
100
AcDbPoint
 10
1124.219037908293
 20
137.6492976462309
 30
0.0
  0
POINT
  5
7804
330
7697
100
AcDbEntity
  8
DEFPOINTS
 62
     0
100
AcDbPoint
 10
1124.219037908293
 20
154.6492976461727
 30
0.0
  0
POINT
  5
7805
330
7697
100
AcDbEntity
  8
DEFPOINTS
 62
     0
100
AcDbPoint
 10
1128.627244791557
 20
154.6492976461727
 30
0.0
  0
ENDBLK
  5
7699
330
7697
100
AcDbEntity
  8
0
100
AcDbBlockEnd
  0
BLOCK
  5
76A6
330
76A5
100
AcDbEntity
  8
0
100
AcDbBlockBegin
  2
*D282
 70
     1
 10
0.0
 20
0.0
 30
0.0
  3
*D282
  1

  0
LINE
  5
7806
330
76A5
100
AcDbEntity
  8
标注
370
    -2
100
AcDbLine
 10
1093.219037908409
 20
137.7692976462309
 30
0.0
 11
1093.219037908409
 21
133.3930756036228
 31
0.0
  0
LINE
  5
7807
330
76A5
100
AcDbEntity
  8
标注
370
    -2
100
AcDbLine
 10
1125.219037908293
 20
137.7692976462309
 30
0.0
 11
1125.219037908293
 21
133.3930756036228
 31
0.0
  0
LINE
  5
7808
330
76A5
100
AcDbEntity
  8
标注
370
    -2
100
AcDbLine
 10
1093.869037908409
 20
133.7130756036228
 30
0.0
 11
1108.293202301257
 21
133.7130756036228
 31
0.0
  0
LINE
  5
7809
330
76A5
100
AcDbEntity
  8
标注
370
    -2
100
AcDbLine
 10
1124.569037908293
 20
133.7130756036228
 30
0.0
 11
1110.144873515445
 21
133.7130756036228
 31
0.0
  0
SOLID
  5
780A
330
76A5
100
AcDbEntity
  8
标注
100
AcDbTrace
 10
1093.869037908409
 20
133.8214089369561
 30
0.0
 11
1093.869037908409
 21
133.6047422702895
 31
0.0
 12
1093.219037908409
 22
133.7130756036228
 32
0.0
 13
1093.219037908409
 23
133.7130756036228
 33
0.0
  0
SOLID
  5
780B
330
76A5
100
AcDbEntity
  8
标注
100
AcDbTrace
 10
1124.569037908293
 20
133.8214089369561
 30
0.0
 11
1124.569037908293
 21
133.6047422702895
 31
0.0
 12
1125.219037908293
 22
133.7130756036228
 32
0.0
 13
1125.219037908293
 23
133.7130756036228
 33
0.0
  0
MTEXT
  5
780C
330
76A5
100
AcDbEntity
  8
标注
100
AcDbMText
 10
1109.219037908351
 20
133.7130756036228
 30
0.0
 40
0.65
 41
0.0
 71
     5
 72
     1
  1
\A1;32"
 73
     1
 44
1.0
1001
ACAD
1000
MTEXTBEGIN
1070
    73
1070
     1
1070
    44
1040
1.0
1070
    74
1070
     0
1000
MTEXTEND
  0
POINT
  5
780D
330
76A5
100
AcDbEntity
  8
DEFPOINTS
 62
     0
100
AcDbPoint
 10
1093.219037908409
 20
138.6492976462309
 30
0.0
  0
POINT
  5
780E
330
76A5
100
AcDbEntity
  8
DEFPOINTS
 62
     0
100
AcDbPoint
 10
1125.219037908293
 20
138.6492976462309
 30
0.0
  0
POINT
  5
780F
330
76A5
100
AcDbEntity
  8
DEFPOINTS
 62
     0
100
AcDbPoint
 10
1125.219037908293
 20
133.7130756036228
 30
0.0
  0
ENDBLK
  5
76A7
330
76A5
100
AcDbEntity
  8
0
100
AcDbBlockEnd
  0
BLOCK
  5
76B4
330
76B3
100
AcDbEntity
  8
0
100
AcDbBlockBegin
  2
*D283
 70
     1
 10
0.0
 20
0.0
 30
0.0
  3
*D283
  1

  0
LINE
  5
7810
330
76B3
100
AcDbEntity
  8
标注
370
    -2
100
AcDbLine
 10
1093.87626493558
 20
156.9951357246206
 30
0.0
 11
1093.417600967974
 21
157.4557085905384
 31
0.0
  0
MTEXT
  5
7811
330
76B3
100
AcDbEntity
  8
标注
100
AcDbMText
 10
1093.600253988969
 20
158.3447249952715
 30
0.0
 40
0.65
 41
0.0
 71
     5
 72
     1
  1
\A1;5-R3/8"
 11
0.7056368732401872
 21
-0.7085736398736634
 31
0.0
 73
     1
 44
1.0
1001
ACAD
1000
MTEXTBEGIN
1070
    73
1070
     1
1070
    44
1040
1.0
1070
    74
1070
     0
1000
MTEXTEND
  0
LINE
  5
7812
330
76B3
100
AcDbEntity
  8
标注
370
    -2
100
AcDbLine
 10
1094.6127386958
 20
156.2555968587534
 30
0.0
 11
1094.334928903186
 21
156.5345628587027
 31
0.0
  0
SOLID
  5
7813
330
76B3
100
AcDbEntity
  8
标注
100
AcDbTrace
 10
1093.9530270799
 20
157.0715797192216
 30
0.0
 11
1093.79950279126
 21
156.9186917300195
 31
0.0
 12
1094.334928903186
 22
156.5345628587027
 32
0.0
 13
1094.334928903186
 23
156.5345628587027
 33
0.0
  0
POINT
  5
7814
330
76B3
100
AcDbEntity
  8
DEFPOINTS
 62
     0
100
AcDbPoint
 10
1094.334928903186
 20
156.5345628587027
 30
0.0
  0
POINT
  5
7815
330
76B3
100
AcDbEntity
  8
DEFPOINTS
 62
     0
100
AcDbPoint
 10
1094.6127386958
 20
156.2555968587534
 30
0.0
  0
ENDBLK
  5
76B5
330
76B3
100
AcDbEntity
  8
0
100
AcDbBlockEnd
  0
BLOCK
  5
76BE
330
76BD
100
AcDbEntity
  8
0
100
AcDbBlockBegin
  2
*D284
 70
     1
 10
0.0
 20
0.0
 30
0.0
  3
*D284
  1

  0
LINE
  5
7816
330
76BD
100
AcDbEntity
  8
标注
370
    -2
100
AcDbLine
 10
1124.291583090298
 20
154.1893666535615
 30
0.0
 11
1124.581953552567
 21
154.7709034061764
 31
0.0
  0
MTEXT
  5
7817
330
76BD
100
AcDbEntity
  8
标注
100
AcDbMText
 10
1124.530643726963
 20
155.8799004967975
 30
0.0
 40
0.65
 41
0.0
 71
     5
 72
     1
  1
\A1;4-R3/8"
 11
0.4467237881053878
 21
0.8946719270999691
 31
0.0
 73
     1
 44
1.0
1001
ACAD
1000
MTEXTBEGIN
1070
    73
1070
     1
1070
    44
1040
1.0
1070
    74
1070
     0
1000
MTEXTEND
  0
LINE
  5
7818
330
76BD
100
AcDbEntity
  8
标注
370
    -2
100
AcDbLine
 10
1123.825337120903
 20
153.2555968587827
 30
0.0
 11
1124.00121262803
 21
153.6078299009465
 31
0.0
  0
SOLID
  5
7819
330
76BD
100
AcDbEntity
  8
标注
100
AcDbTrace
 10
1124.194660298196
 20
154.2377617306062
 30
0.0
 11
1124.388505882401
 21
154.1409715765167
 31
0.0
 12
1124.00121262803
 22
153.6078299009465
 32
0.0
 13
1124.00121262803
 23
153.6078299009465
 33
0.0
  0
POINT
  5
781A
330
76BD
100
AcDbEntity
  8
DEFPOINTS
 62
     0
100
AcDbPoint
 10
1124.00121262803
 20
153.6078299009465
 30
0.0
  0
POINT
  5
781B
330
76BD
100
AcDbEntity
  8
DEFPOINTS
 62
     0
100
AcDbPoint
 10
1123.825337120903
 20
153.2555968587827
 30
0.0
  0
ENDBLK
  5
76BF
330
76BD
100
AcDbEntity
  8
0
100
AcDbBlockEnd
  0
BLOCK
  5
76EC
330
76EB
100
AcDbEntity
  8
0
100
AcDbBlockBegin
  2
*D285
 70
     1
 10
0.0
 20
0.0
 30
0.0
  3
*D285
  1

  0
LINE
  5
781C
330
76EB
100
AcDbEntity
  8
标注
370
    -2
100
AcDbLine
 10
1126.099037908293
 20
180.2520553898191
 30
0.0
 11
1126.704445311587
 21
180.2520553898191
 31
0.0
  0
LINE
  5
781D
330
76EB
100
AcDbEntity
  8
标注
370
    -2
100
AcDbLine
 10
1125.2099719636
 20
172.3114609016493
 30
0.0
 11
1126.704445311587
 21
172.3114609016493
 31
0.0
  0
LINE
  5
781E
330
76EB
100
AcDbEntity
  8
标注
370
    -2
100
AcDbLine
 10
1126.384445311588
 20
179.6020553898191
 30
0.0
 11
1126.384445311588
 21
176.95575200658
 31
0.0
  0
LINE
  5
781F
330
76EB
100
AcDbEntity
  8
标注
370
    -2
100
AcDbLine
 10
1126.384445311588
 20
172.9614609016492
 30
0.0
 11
1126.384445311588
 21
175.6077642848883
 31
0.0
  0
SOLID
  5
7820
330
76EB
100
AcDbEntity
  8
标注
100
AcDbTrace
 10
1126.276111978254
 20
179.6020553898191
 30
0.0
 11
1126.492778644921
 21
179.6020553898191
 31
0.0
 12
1126.384445311588
 22
180.2520553898191
 32
0.0
 13
1126.384445311588
 23
180.2520553898191
 33
0.0
  0
SOLID
  5
7821
330
76EB
100
AcDbEntity
  8
标注
100
AcDbTrace
 10
1126.276111978254
 20
172.9614609016492
 30
0.0
 11
1126.492778644921
 21
172.9614609016492
 31
0.0
 12
1126.384445311588
 22
172.3114609016493
 32
0.0
 13
1126.384445311588
 23
172.3114609016493
 33
0.0
  0
MTEXT
  5
7822
330
76EB
100
AcDbEntity
  8
标注
100
AcDbMText
 10
1126.384445311588
 20
176.2817581457344
 30
0.0
 40
0.65
 41
0.0
 71
     5
 72
     1
  1
\A1;8"
 11
0.0000000000000001
 21
1.0
 31
0.0
 73
     1
 44
1.0
1001
ACAD
1000
MTEXTBEGIN
1070
    73
1070
     1
1070
    44
1040
1.0
1070
    74
1070
     0
1000
MTEXTEND
  0
POINT
  5
7823
330
76EB
100
AcDbEntity
  8
DEFPOINTS
 62
     0
100
AcDbPoint
 10
1125.219037908293
 20
180.2520553898191
 30
0.0
  0
POINT
  5
7824
330
76EB
100
AcDbEntity
  8
DEFPOINTS
 62
     0
100
AcDbPoint
 10
1124.3299719636
 20
172.3114609016493
 30
0.0
  0
POINT
  5
7825
330
76EB
100
AcDbEntity
  8
DEFPOINTS
 62
     0
100
AcDbPoint
 10
1126.384445311588
 20
172.3114609016493
 30
0.0
  0
ENDBLK
  5
76ED
330
76EB
100
AcDbEntity
  8
0
100
AcDbBlockEnd
  0
BLOCK
  5
770E
330
770D
100
AcDbEntity
  8
0
100
AcDbBlockBegin
  2
*D286
 70
     1
 10
0.0
 20
0.0
 30
0.0
  3
*D286
  1

  0
LINE
  5
7826
330
770D
100
AcDbEntity
  8
标注
370
    -2
100
AcDbLine
 10
1092.339037908409
 20
180.2520553898191
 30
0.0
 11
1090.297624076173
 21
180.2520553898191
 31
0.0
  0
LINE
  5
7827
330
770D
100
AcDbEntity
  8
标注
370
    -2
100
AcDbLine
 10
1092.476586291607
 20
170.1897237893847
 30
0.0
 11
1090.297624076173
 21
170.1897237893847
 31
0.0
  0
LINE
  5
7828
330
770D
100
AcDbEntity
  8
标注
370
    -2
100
AcDbLine
 10
1090.617624076173
 20
179.6020553898191
 30
0.0
 11
1090.617624076173
 21
176.1163534368052
 31
0.0
  0
LINE
  5
7829
330
770D
100
AcDbEntity
  8
标注
370
    -2
100
AcDbLine
 10
1090.617624076173
 20
170.8397237893848
 30
0.0
 11
1090.617624076173
 21
174.3254257423986
 31
0.0
  0
SOLID
  5
782A
330
770D
100
AcDbEntity
  8
标注
100
AcDbTrace
 10
1090.509290742839
 20
179.6020553898191
 30
0.0
 11
1090.725957409506
 21
179.6020553898191
 31
0.0
 12
1090.617624076173
 22
180.2520553898191
 32
0.0
 13
1090.617624076173
 23
180.2520553898191
 33
0.0
  0
SOLID
  5
782B
330
770D
100
AcDbEntity
  8
标注
100
AcDbTrace
 10
1090.509290742839
 20
170.8397237893848
 30
0.0
 11
1090.725957409506
 21
170.8397237893848
 31
0.0
 12
1090.617624076173
 22
170.1897237893847
 32
0.0
 13
1090.617624076173
 23
170.1897237893847
 33
0.0
  0
MTEXT
  5
782C
330
770D
100
AcDbEntity
  8
标注
100
AcDbMText
 10
1090.617624076173
 20
175.2208895896021
 30
0.0
 40
0.65
 41
0.0
 71
     5
 72
     1
  1
\A1;10"
 11
0.0000000000000001
 21
1.0
 31
0.0
 73
     1
 44
1.0
1001
ACAD
1000
MTEXTBEGIN
1070
    73
1070
     1
1070
    44
1040
1.0
1070
    74
1070
     0
1000
MTEXTEND
  0
POINT
  5
782D
330
770D
100
AcDbEntity
  8
DEFPOINTS
 62
     0
100
AcDbPoint
 10
1093.219037908409
 20
180.2520553898191
 30
0.0
  0
POINT
  5
782E
330
770D
100
AcDbEntity
  8
DEFPOINTS
 62
     0
100
AcDbPoint
 10
1093.356586291608
 20
170.1897237893847
 30
0.0
  0
POINT
  5
782F
330
770D
100
AcDbEntity
  8
DEFPOINTS
 62
     0
100
AcDbPoint
 10
1090.617624076173
 20
170.1897237893847
 30
0.0
  0
ENDBLK
  5
770F
330
770D
100
AcDbEntity
  8
0
100
AcDbBlockEnd
  0
BLOCK
  5
7746
330
7745
100
AcDbEntity
  8
0
100
AcDbBlockBegin
  2
*D287
 70
     1
 10
0.0
 20
0.0
 30
0.0
  3
*D287
  1

  0
LINE
  5
7830
330
7745
100
AcDbEntity
  8
标注
370
    -2
100
AcDbLine
 10
1093.802240785223
 20
170.0507709463767
 30
0.0
 11
1093.297475771884
 21
169.6412440470058
 31
0.0
  0
MTEXT
  5
7831
330
7745
100
AcDbEntity
  8
标注
100
AcDbMText
 10
1095.198511755165
 20
171.6841163083834
 30
0.0
 40
0.65
 41
0.0
 71
     5
 72
     1
  1
\A1;R3/8"
 11
0.7765615589838496
 21
0.6300413836475928
 31
0.0
 73
     1
 44
1.0
1001
ACAD
1000
MTEXTBEGIN
1070
    73
1070
     1
1070
    44
1040
1.0
1070
    74
1070
     0
1000
MTEXTEND
  0
LINE
  5
7832
330
7745
100
AcDbEntity
  8
标注
370
    -2
100
AcDbLine
 10
1094.6127386958
 20
170.7083456345843
 30
0.0
 11
1094.307005798563
 21
170.4602978457476
 31
0.0
  0
SOLID
  5
7833
330
7745
100
AcDbEntity
  8
标注
100
AcDbTrace
 10
1093.733986301995
 20
170.1348984486
 30
0.0
 11
1093.870495268451
 21
169.9666434441534
 31
0.0
 12
1094.307005798563
 22
170.4602978457476
 32
0.0
 13
1094.307005798563
 23
170.4602978457476
 33
0.0
  0
POINT
  5
7834
330
7745
100
AcDbEntity
  8
DEFPOINTS
 62
     0
100
AcDbPoint
 10
1094.307005798563
 20
170.4602978457476
 30
0.0
  0
POINT
  5
7835
330
7745
100
AcDbEntity
  8
DEFPOINTS
 62
     0
100
AcDbPoint
 10
1094.6127386958
 20
170.7083456345843
 30
0.0
  0
ENDBLK
  5
7747
330
7745
100
AcDbEntity
  8
0
100
AcDbBlockEnd
  0
BLOCK
  5
7750
330
774F
100
AcDbEntity
  8
0
100
AcDbBlockBegin
  2
*D288
 70
     1
 10
0.0
 20
0.0
 30
0.0
  3
*D288
  1

  0
LINE
  5
7836
330
774F
100
AcDbEntity
  8
标注
370
    -2
100
AcDbLine
 10
1112.872264177389
 20
171.9753720636373
 30
0.0
 11
1112.411108602228
 21
171.5172939747729
 31
0.0
  0
MTEXT
  5
7837
330
774F
100
AcDbEntity
  8
标注
100
AcDbMText
 10
1114.150678800255
 20
173.7005345679518
 30
0.0
 40
0.65
 41
0.0
 71
     5
 72
     1
  1
\A1;R3/8"
 11
0.7094701156328542
 21
0.7047355213297429
 31
0.0
 73
     1
 44
1.0
1001
ACAD
1000
MTEXTBEGIN
1070
    73
1070
     1
1070
    44
1040
1.0
1070
    74
1070
     0
1000
MTEXTEND
  0
LINE
  5
7838
330
774F
100
AcDbEntity
  8
标注
370
    -2
100
AcDbLine
 10
1113.612738695712
 20
172.7109050821579
 30
0.0
 11
1113.333419752551
 21
172.4334501525015
 31
0.0
  0
SOLID
  5
7839
330
774F
100
AcDbEntity
  8
标注
100
AcDbTrace
 10
1112.795917829245
 20
172.0522313261642
 30
0.0
 11
1112.948610525533
 21
171.8985128011103
 31
0.0
 12
1113.333419752551
 22
172.4334501525015
 32
0.0
 13
1113.333419752551
 23
172.4334501525015
 33
0.0
  0
POINT
  5
783A
330
774F
100
AcDbEntity
  8
DEFPOINTS
 62
     0
100
AcDbPoint
 10
1113.333419752551
 20
172.4334501525015
 30
0.0
  0
POINT
  5
783B
330
774F
100
AcDbEntity
  8
DEFPOINTS
 62
     0
100
AcDbPoint
 10
1113.612738695712
 20
172.7109050821579
 30
0.0
  0
ENDBLK
  5
7751
330
774F
100
AcDbEntity
  8
0
100
AcDbBlockEnd
  0
BLOCK
  5
7766
330
7765
100
AcDbEntity
  8
0
100
AcDbBlockBegin
  2
*D289
 70
     1
 10
0.0
 20
0.0
 30
0.0
  3
*D289
  1

  0
LINE
  5
783C
330
7765
100
AcDbEntity
  8
标注
370
    -2
100
AcDbLine
 10
1094.140297750931
 20
102.9269107860633
 30
0.0
 11
1094.140297750931
 21
100.45367402825
 31
0.0
  0
LINE
  5
783D
330
7765
100
AcDbEntity
  8
标注
370
    -2
100
AcDbLine
 10
1124.297778065771
 20
102.9269107860633
 30
0.0
 11
1124.297778065771
 21
100.45367402825
 31
0.0
  0
LINE
  5
783E
330
7765
100
AcDbEntity
  8
标注
370
    -2
100
AcDbLine
 10
1094.790297750931
 20
100.77367402825
 30
0.0
 11
1107.535903529088
 21
100.77367402825
 31
0.0
  0
LINE
  5
783F
330
7765
100
AcDbEntity
  8
标注
370
    -2
100
AcDbLine
 10
1123.64777806577
 20
100.77367402825
 30
0.0
 11
1110.902172287614
 21
100.77367402825
 31
0.0
  0
SOLID
  5
7840
330
7765
100
AcDbEntity
  8
标注
100
AcDbTrace
 10
1094.790297750931
 20
100.8820073615833
 30
0.0
 11
1094.790297750931
 21
100.6653406949167
 31
0.0
 12
1094.140297750931
 22
100.77367402825
 32
0.0
 13
1094.140297750931
 23
100.77367402825
 33
0.0
  0
SOLID
  5
7841
330
7765
100
AcDbEntity
  8
标注
100
AcDbTrace
 10
1123.64777806577
 20
100.8820073615833
 30
0.0
 11
1123.64777806577
 21
100.6653406949167
 31
0.0
 12
1124.297778065771
 22
100.77367402825
 32
0.0
 13
1124.297778065771
 23
100.77367402825
 33
0.0
  0
MTEXT
  5
7842
330
7765
100
AcDbEntity
  8
标注
100
AcDbMText
 10
1109.219037908351
 20
100.77367402825
 30
0.0
 40
0.65
 41
0.0
 71
     5
 72
     1
  1
\A1;30 1/8"
 73
     1
 44
1.0
1001
ACAD
1000
MTEXTBEGIN
1070
    73
1070
     1
1070
    44
1040
1.0
1070
    74
1070
     0
1000
MTEXTEND
  0
POINT
  5
7843
330
7765
100
AcDbEntity
  8
DEFPOINTS
 62
     0
100
AcDbPoint
 10
1094.140297750931
 20
103.8069107860633
 30
0.0
  0
POINT
  5
7844
330
7765
100
AcDbEntity
  8
DEFPOINTS
 62
     0
100
AcDbPoint
 10
1124.297778065771
 20
103.8069107860633
 30
0.0
  0
POINT
  5
7845
330
7765
100
AcDbEntity
  8
DEFPOINTS
 62
     0
100
AcDbPoint
 10
1124.297778065771
 20
100.77367402825
 30
0.0
  0
ENDBLK
  5
7767
330
7765
100
AcDbEntity
  8
0
100
AcDbBlockEnd
  0
BLOCK
  5
7774
330
7773
100
AcDbEntity
  8
0
100
AcDbBlockBegin
  2
*D290
 70
     1
 10
0.0
 20
0.0
 30
0.0
  3
*D290
  1

  0
LINE
  5
7846
330
7773
100
AcDbEntity
  8
标注
370
    -2
100
AcDbLine
 10
1124.705337120903
 20
103.3344698411661
 30
0.0
 11
1126.861296074281
 21
103.3344698411661
 31
0.0
  0
LINE
  5
7847
330
7773
100
AcDbEntity
  8
标注
370
    -2
100
AcDbLine
 10
1124.705337120903
 20
118.4919501560758
 30
0.0
 11
1126.861296074281
 21
118.4919501560758
 31
0.0
  0
LINE
  5
7848
330
7773
100
AcDbEntity
  8
标注
370
    -2
100
AcDbLine
 10
1126.541296074281
 20
103.9844698411661
 30
0.0
 11
1126.541296074281
 21
109.2604473792485
 31
0.0
  0
LINE
  5
7849
330
7773
100
AcDbEntity
  8
标注
370
    -2
100
AcDbLine
 10
1126.541296074281
 20
117.8419501560758
 30
0.0
 11
1126.541296074281
 21
112.5659726179934
 31
0.0
  0
SOLID
  5
784A
330
7773
100
AcDbEntity
  8
标注
100
AcDbTrace
 10
1126.432962740947
 20
103.9844698411661
 30
0.0
 11
1126.649629407614
 21
103.9844698411661
 31
0.0
 12
1126.541296074281
 22
103.3344698411661
 32
0.0
 13
1126.541296074281
 23
103.3344698411661
 33
0.0
  0
SOLID
  5
784B
330
7773
100
AcDbEntity
  8
标注
100
AcDbTrace
 10
1126.432962740947
 20
117.8419501560758
 30
0.0
 11
1126.649629407614
 21
117.8419501560758
 31
0.0
 12
1126.541296074281
 22
118.4919501560758
 32
0.0
 13
1126.541296074281
 23
118.4919501560758
 33
0.0
  0
MTEXT
  5
784C
330
7773
100
AcDbEntity
  8
标注
100
AcDbMText
 10
1126.541296074281
 20
110.9132099986211
 30
0.0
 40
0.65
 41
0.0
 71
     5
 72
     1
  1
\A1;15 1/8"
 11
0.0000000000000001
 21
1.0
 31
0.0
 73
     1
 44
1.0
1001
ACAD
1000
MTEXTBEGIN
1070
    73
1070
     1
1070
    44
1040
1.0
1070
    74
1070
     0
1000
MTEXTEND
  0
POINT
  5
784D
330
7773
100
AcDbEntity
  8
DEFPOINTS
 62
     0
100
AcDbPoint
 10
1123.825337120903
 20
103.3344698411661
 30
0.0
  0
POINT
  5
784E
330
7773
100
AcDbEntity
  8
DEFPOINTS
 62
     0
100
AcDbPoint
 10
1123.825337120903
 20
118.4919501560758
 30
0.0
  0
POINT
  5
784F
330
7773
100
AcDbEntity
  8
DEFPOINTS
 62
     0
100
AcDbPoint
 10
1126.541296074281
 20
118.4919501560758
 30
0.0
  0
ENDBLK
  5
7775
330
7773
100
AcDbEntity
  8
0
100
AcDbBlockEnd
  0
BLOCK
  5
7782
330
7781
100
AcDbEntity
  8
0
100
AcDbBlockBegin
  2
*D291
 70
     1
 10
0.0
 20
0.0
 30
0.0
  3
*D291
  1

  0
LINE
  5
7850
330
7781
100
AcDbEntity
  8
标注
370
    -2
100
AcDbLine
 10
1093.732738695799
 20
121.4919501560639
 30
0.0
 11
1091.348689843156
 21
121.4919501560639
 31
0.0
  0
LINE
  5
7851
330
7781
100
AcDbEntity
  8
标注
370
    -2
100
AcDbLine
 10
1093.732738695799
 20
103.3344698411661
 30
0.0
 11
1091.348689843156
 21
103.3344698411661
 31
0.0
  0
LINE
  5
7852
330
7781
100
AcDbEntity
  8
标注
370
    -2
100
AcDbLine
 10
1091.668689843156
 20
120.8419501560639
 30
0.0
 11
1091.668689843156
 21
114.0659726179874
 31
0.0
  0
LINE
  5
7853
330
7781
100
AcDbEntity
  8
标注
370
    -2
100
AcDbLine
 10
1091.668689843156
 20
103.9844698411661
 30
0.0
 11
1091.668689843156
 21
110.7604473792426
 31
0.0
  0
SOLID
  5
7854
330
7781
100
AcDbEntity
  8
标注
100
AcDbTrace
 10
1091.560356509823
 20
120.8419501560639
 30
0.0
 11
1091.77702317649
 21
120.8419501560639
 31
0.0
 12
1091.668689843156
 22
121.4919501560639
 32
0.0
 13
1091.668689843156
 23
121.4919501560639
 33
0.0
  0
SOLID
  5
7855
330
7781
100
AcDbEntity
  8
标注
100
AcDbTrace
 10
1091.560356509823
 20
103.9844698411661
 30
0.0
 11
1091.77702317649
 21
103.9844698411661
 31
0.0
 12
1091.668689843156
 22
103.3344698411661
 32
0.0
 13
1091.668689843156
 23
103.3344698411661
 33
0.0
  0
MTEXT
  5
7856
330
7781
100
AcDbEntity
  8
标注
100
AcDbMText
 10
1091.668689843156
 20
112.4132099986152
 30
0.0
 40
0.65
 41
0.0
 71
     5
 72
     1
  1
\A1;18 1/8"
 11
0.0000000000000001
 21
1.0
 31
0.0
 73
     1
 44
1.0
1001
ACAD
1000
MTEXTBEGIN
1070
    73
1070
     1
1070
    44
1040
1.0
1070
    74
1070
     0
1000
MTEXTEND
  0
POINT
  5
7857
330
7781
100
AcDbEntity
  8
DEFPOINTS
 62
     0
100
AcDbPoint
 10
1094.612738695799
 20
121.4919501560639
 30
0.0
  0
POINT
  5
7858
330
7781
100
AcDbEntity
  8
DEFPOINTS
 62
     0
100
AcDbPoint
 10
1094.612738695799
 20
103.3344698411661
 30
0.0
  0
POINT
  5
7859
330
7781
100
AcDbEntity
  8
DEFPOINTS
 62
     0
100
AcDbPoint
 10
1091.668689843156
 20
103.3344698411661
 30
0.0
  0
ENDBLK
  5
7783
330
7781
100
AcDbEntity
  8
0
100
AcDbBlockEnd
  0
BLOCK
  5
779C
330
779B
100
AcDbEntity
  8
0
100
AcDbBlockBegin
  2
*D292
 70
     1
 10
0.0
 20
0.0
 30
0.0
  3
*D292
  1

  0
LINE
  5
785A
330
779B
100
AcDbEntity
  8
标注
370
    -2
100
AcDbLine
 10
1094.000393770082
 20
102.8662156352885
 30
0.0
 11
1093.645787852032
 21
102.3214637258071
 31
0.0
  0
MTEXT
  5
785B
330
779B
100
AcDbEntity
  8
标注
100
AcDbMText
 10
1095.007723061172
 20
104.9823665217169
 30
0.0
 40
0.65
 41
0.0
 71
     5
 72
     1
  1
\A1;4-R1/2"
 11
0.5455475662312493
 21
0.8380798607407056
 31
0.0
 73
     1
 44
1.0
1001
ACAD
1000
MTEXTBEGIN
1070
    73
1070
     1
1070
    44
1040
1.0
1070
    74
1070
     0
1000
MTEXTEND
  0
LINE
  5
785C
330
779B
100
AcDbEntity
  8
标注
370
    -2
100
AcDbLine
 10
1094.6127386958
 20
103.8069107860634
 30
0.0
 11
1094.354999688132
 21
103.4109675447701
 31
0.0
  0
SOLID
  5
785D
330
779B
100
AcDbEntity
  8
标注
100
AcDbTrace
 10
1093.909601785168
 20
102.9253166216303
 30
0.0
 11
1094.091185754995
 21
102.8071146489468
 31
0.0
 12
1094.354999688132
 22
103.4109675447701
 32
0.0
 13
1094.354999688132
 23
103.4109675447701
 33
0.0
  0
POINT
  5
785E
330
779B
100
AcDbEntity
  8
DEFPOINTS
 62
     0
100
AcDbPoint
 10
1094.354999688132
 20
103.4109675447701
 30
0.0
  0
POINT
  5
785F
330
779B
100
AcDbEntity
  8
DEFPOINTS
 62
     0
100
AcDbPoint
 10
1094.6127386958
 20
103.8069107860634
 30
0.0
  0
ENDBLK
  5
779D
330
779B
100
AcDbEntity
  8
0
100
AcDbBlockEnd
  0
BLOCK
  5
77A6
330
77A5
100
AcDbEntity
  8
0
100
AcDbBlockBegin
  2
*D293
 70
     1
 10
0.0
 20
0.0
 30
0.0
  3
*D293
  1

  0
LINE
  5
7860
330
77A5
100
AcDbEntity
  8
标注
370
    -2
100
AcDbLine
 10
1111.886533972846
 20
117.992092217273
 30
0.0
 11
1111.561771314293
 21
117.429038742362
 31
0.0
  0
MTEXT
  5
7861
330
77A5
100
AcDbEntity
  8
标注
100
AcDbMText
 10
1112.539704507055
 20
120.0034754309798
 30
0.0
 40
0.65
 41
0.0
 71
     5
 72
     1
  1
\A1;R1/2"
 11
0.4996348593125618
 21
0.8662361152478673
 31
0.0
 73
     1
 44
1.0
1001
ACAD
1000
MTEXTBEGIN
1070
    73
1070
     1
1070
    44
1040
1.0
1070
    74
1070
     0
1000
MTEXTEND
  0
LINE
  5
7862
330
77A5
100
AcDbEntity
  8
标注
370
    -2
100
AcDbLine
 10
1112.447344596428
 20
118.9643911009611
 30
0.0
 11
1112.2112966314
 21
118.5551456921842
 31
0.0
  0
SOLID
  5
7863
330
77A5
100
AcDbEntity
  8
标注
100
AcDbTrace
 10
1111.792691727028
 20
118.0462193270319
 30
0.0
 11
1111.980376218665
 21
117.9379651075142
 31
0.0
 12
1112.2112966314
 22
118.5551456921842
 32
0.0
 13
1112.2112966314
 23
118.5551456921842
 33
0.0
  0
POINT
  5
7864
330
77A5
100
AcDbEntity
  8
DEFPOINTS
 62
     0
100
AcDbPoint
 10
1112.2112966314
 20
118.5551456921842
 30
0.0
  0
POINT
  5
7865
330
77A5
100
AcDbEntity
  8
DEFPOINTS
 62
     0
100
AcDbPoint
 10
1112.447344596428
 20
118.9643911009611
 30
0.0
  0
ENDBLK
  5
77A7
330
77A5
100
AcDbEntity
  8
0
100
AcDbBlockEnd
  0
BLOCK
  5
77B0
330
77AF
100
AcDbEntity
  8
0
100
AcDbBlockBegin
  2
*D294
 70
     1
 10
0.0
 20
0.0
 30
0.0
  3
*D294
  1

  0
LINE
  5
7866
330
77AF
100
AcDbEntity
  8
标注
370
    -2
100
AcDbLine
 10
1109.435205492657
 20
122.075940857151
 30
0.0
 11
1109.654823695732
 21
122.6877151986184
 31
0.0
  0
MTEXT
  5
7867
330
77AF
100
AcDbEntity
  8
标注
100
AcDbMText
 10
1109.07288571938
 20
122.8917439178633
 30
0.0
 40
0.65
 41
0.0
 71
     5
 72
     1
  1
\A1;R1/2"
 11
0.3378741585777782
 21
0.9411912945652218
 31
0.0
 73
     1
 44
1.0
1001
ACAD
1000
MTEXTBEGIN
1070
    73
1070
     1
1070
    44
1040
1.0
1070
    74
1070
     0
1000
MTEXTEND
  0
LINE
  5
7868
330
77AF
100
AcDbEntity
  8
标注
370
    -2
100
AcDbLine
 10
1109.055961702852
 20
121.0195092111667
 30
0.0
 11
1109.215587289581
 21
121.4641665156836
 31
0.0
  0
SOLID
  5
7869
330
77AF
100
AcDbEntity
  8
标注
100
AcDbTrace
 10
1109.333243102412
 20
122.1125438909969
 30
0.0
 11
1109.537167882901
 21
122.0393378233051
 31
0.0
 12
1109.215587289581
 22
121.4641665156836
 32
0.0
 13
1109.215587289581
 23
121.4641665156836
 33
0.0
  0
POINT
  5
786A
330
77AF
100
AcDbEntity
  8
DEFPOINTS
 62
     0
100
AcDbPoint
 10
1109.215587289581
 20
121.4641665156836
 30
0.0
  0
POINT
  5
786B
330
77AF
100
AcDbEntity
  8
DEFPOINTS
 62
     0
100
AcDbPoint
 10
1109.055961702852
 20
121.0195092111667
 30
0.0
  0
ENDBLK
  5
77B1
330
77AF
100
AcDbEntity
  8
0
100
AcDbBlockEnd
  0
BLOCK
  5
7956
330
7955
100
AcDbEntity
  8
0
100
AcDbBlockBegin
  2
*D295
 70
     1
 10
0.0
 20
0.0
 30
0.0
  3
*D295
  1

  0
LINE
  5
7AE8
330
7955
100
AcDbEntity
  8
标注
370
    -2
100
AcDbLine
 10
1135.362178664015
 20
138.162998433621
 30
0.0
 11
1135.362178664015
 21
135.1913252291895
 31
0.0
  0
LINE
  5
7AE9
330
7955
100
AcDbEntity
  8
标注
370
    -2
100
AcDbLine
 10
1117.362178664093
 20
138.162998433621
 30
0.0
 11
1117.362178664093
 21
135.1913252291895
 31
0.0
  0
LINE
  5
7AEA
330
7955
100
AcDbEntity
  8
标注
370
    -2
100
AcDbLine
 10
1134.712178664015
 20
135.5113252291895
 30
0.0
 11
1127.257642511257
 21
135.5113252291895
 31
0.0
  0
LINE
  5
7AEB
330
7955
100
AcDbEntity
  8
标注
370
    -2
100
AcDbLine
 10
1118.012178664093
 20
135.5113252291895
 30
0.0
 11
1125.46671481685
 21
135.5113252291895
 31
0.0
  0
SOLID
  5
7AEC
330
7955
100
AcDbEntity
  8
标注
100
AcDbTrace
 10
1134.712178664015
 20
135.6196585625228
 30
0.0
 11
1134.712178664015
 21
135.4029918958562
 31
0.0
 12
1135.362178664015
 22
135.5113252291895
 32
0.0
 13
1135.362178664015
 23
135.5113252291895
 33
0.0
  0
SOLID
  5
7AED
330
7955
100
AcDbEntity
  8
标注
100
AcDbTrace
 10
1118.012178664093
 20
135.6196585625228
 30
0.0
 11
1118.012178664093
 21
135.4029918958562
 31
0.0
 12
1117.362178664093
 22
135.5113252291895
 32
0.0
 13
1117.362178664093
 23
135.5113252291895
 33
0.0
  0
MTEXT
  5
7AEE
330
7955
100
AcDbEntity
  8
标注
100
AcDbMText
 10
1126.362178664054
 20
135.5113252291895
 30
0.0
 40
0.65
 41
0.0
 71
     5
 72
     1
  1
\A1;18"
 73
     1
 44
1.0
1001
ACAD
1000
MTEXTBEGIN
1070
    73
1070
     1
1070
    44
1040
1.0
1070
    74
1070
     0
1000
MTEXTEND
  0
POINT
  5
7AEF
330
7955
100
AcDbEntity
  8
DEFPOINTS
 62
     0
100
AcDbPoint
 10
1135.362178664015
 20
139.0429984336211
 30
0.0
  0
POINT
  5
7AF0
330
7955
100
AcDbEntity
  8
DEFPOINTS
 62
     0
100
AcDbPoint
 10
1117.362178664093
 20
139.0429984336211
 30
0.0
  0
POINT
  5
7AF1
330
7955
100
AcDbEntity
  8
DEFPOINTS
 62
     0
100
AcDbPoint
 10
1117.362178664093
 20
135.5113252291895
 30
0.0
  0
ENDBLK
  5
7957
330
7955
100
AcDbEntity
  8
0
100
AcDbBlockEnd
  0
BLOCK
  5
7963
330
7962
100
AcDbEntity
  8
0
100
AcDbBlockBegin
  2
*D296
 70
     1
 10
0.0
 20
0.0
 30
0.0
  3
*D296
  1

  0
LINE
  5
7AF2
330
7962
100
AcDbEntity
  8
标注
370
    -2
100
AcDbLine
 10
1116.362178664083
 20
138.162998433621
 30
0.0
 11
1116.362178664083
 21
135.1913252291895
 31
0.0
  0
LINE
  5
7AF3
330
7962
100
AcDbEntity
  8
标注
370
    -2
100
AcDbLine
 10
1105.362178664131
 20
138.162998433621
 30
0.0
 11
1105.362178664131
 21
135.1913252291895
 31
0.0
  0
LINE
  5
7AF4
330
7962
100
AcDbEntity
  8
标注
370
    -2
100
AcDbLine
 10
1115.712178664083
 20
135.5113252291895
 30
0.0
 11
1111.75764251131
 21
135.5113252291895
 31
0.0
  0
LINE
  5
7AF5
330
7962
100
AcDbEntity
  8
标注
370
    -2
100
AcDbLine
 10
1106.012178664131
 20
135.5113252291895
 30
0.0
 11
1109.966714816904
 21
135.5113252291895
 31
0.0
  0
SOLID
  5
7AF6
330
7962
100
AcDbEntity
  8
标注
100
AcDbTrace
 10
1115.712178664083
 20
135.6196585625228
 30
0.0
 11
1115.712178664083
 21
135.4029918958562
 31
0.0
 12
1116.362178664083
 22
135.5113252291895
 32
0.0
 13
1116.362178664083
 23
135.5113252291895
 33
0.0
  0
SOLID
  5
7AF7
330
7962
100
AcDbEntity
  8
标注
100
AcDbTrace
 10
1106.012178664131
 20
135.6196585625228
 30
0.0
 11
1106.012178664131
 21
135.4029918958562
 31
0.0
 12
1105.362178664131
 22
135.5113252291895
 32
0.0
 13
1105.362178664131
 23
135.5113252291895
 33
0.0
  0
MTEXT
  5
7AF8
330
7962
100
AcDbEntity
  8
标注
100
AcDbMText
 10
1110.862178664107
 20
135.5113252291895
 30
0.0
 40
0.65
 41
0.0
 71
     5
 72
     1
  1
\A1;11"
 73
     1
 44
1.0
1001
ACAD
1000
MTEXTBEGIN
1070
    73
1070
     1
1070
    44
1040
1.0
1070
    74
1070
     0
1000
MTEXTEND
  0
POINT
  5
7AF9
330
7962
100
AcDbEntity
  8
DEFPOINTS
 62
     0
100
AcDbPoint
 10
1116.362178664083
 20
139.0429984336211
 30
0.0
  0
POINT
  5
7AFA
330
7962
100
AcDbEntity
  8
DEFPOINTS
 62
     0
100
AcDbPoint
 10
1105.362178664131
 20
139.0429984336211
 30
0.0
  0
POINT
  5
7AFB
330
7962
100
AcDbEntity
  8
DEFPOINTS
 62
     0
100
AcDbPoint
 10
1105.362178664131
 20
135.5113252291895
 30
0.0
  0
ENDBLK
  5
7964
330
7962
100
AcDbEntity
  8
0
100
AcDbBlockEnd
  0
BLOCK
  5
7970
330
796F
100
AcDbEntity
  8
0
100
AcDbBlockBegin
  2
*D297
 70
     1
 10
0.0
 20
0.0
 30
0.0
  3
*D297
  1

  0
LINE
  5
7AFC
330
796F
100
AcDbEntity
  8
标注
370
    -2
100
AcDbLine
 10
1135.848477876596
 20
138.6492976462309
 30
0.0
 11
1138.852883299497
 21
138.6492976462309
 31
0.0
  0
LINE
  5
7AFD
330
796F
100
AcDbEntity
  8
标注
370
    -2
100
AcDbLine
 10
1135.848477876596
 20
156.6492976461727
 30
0.0
 11
1138.852883299497
 21
156.6492976461727
 31
0.0
  0
LINE
  5
7AFE
330
796F
100
AcDbEntity
  8
标注
370
    -2
100
AcDbLine
 10
1138.532883299497
 20
139.2992976462309
 30
0.0
 11
1138.532883299497
 21
146.7538337989986
 31
0.0
  0
LINE
  5
7AFF
330
796F
100
AcDbEntity
  8
标注
370
    -2
100
AcDbLine
 10
1138.532883299497
 20
155.9992976461727
 30
0.0
 11
1138.532883299497
 21
148.5447614934051
 31
0.0
  0
SOLID
  5
7B00
330
796F
100
AcDbEntity
  8
标注
100
AcDbTrace
 10
1138.424549966164
 20
139.2992976462309
 30
0.0
 11
1138.641216632831
 21
139.2992976462309
 31
0.0
 12
1138.532883299497
 22
138.6492976462309
 32
0.0
 13
1138.532883299497
 23
138.6492976462309
 33
0.0
  0
SOLID
  5
7B01
330
796F
100
AcDbEntity
  8
标注
100
AcDbTrace
 10
1138.424549966164
 20
155.9992976461727
 30
0.0
 11
1138.641216632831
 21
155.9992976461727
 31
0.0
 12
1138.532883299497
 22
156.6492976461727
 32
0.0
 13
1138.532883299497
 23
156.6492976461727
 33
0.0
  0
MTEXT
  5
7B02
330
796F
100
AcDbEntity
  8
标注
100
AcDbMText
 10
1138.532883299497
 20
147.649297646202
 30
0.0
 40
0.65
 41
0.0
 71
     5
 72
     1
  1
\A1;18"
 11
0.0000000000000001
 21
1.0
 31
0.0
 73
     1
 44
1.0
1001
ACAD
1000
MTEXTBEGIN
1070
    73
1070
     1
1070
    44
1040
1.0
1070
    74
1070
     0
1000
MTEXTEND
  0
POINT
  5
7B03
330
796F
100
AcDbEntity
  8
DEFPOINTS
 62
     0
100
AcDbPoint
 10
1134.968477876596
 20
138.6492976462309
 30
0.0
  0
POINT
  5
7B04
330
796F
100
AcDbEntity
  8
DEFPOINTS
 62
     0
100
AcDbPoint
 10
1134.968477876596
 20
156.6492976461727
 30
0.0
  0
POINT
  5
7B05
330
796F
100
AcDbEntity
  8
DEFPOINTS
 62
     0
100
AcDbPoint
 10
1138.532883299497
 20
156.6492976461727
 30
0.0
  0
ENDBLK
  5
7971
330
796F
100
AcDbEntity
  8
0
100
AcDbBlockEnd
  0
BLOCK
  5
797D
330
797C
100
AcDbEntity
  8
0
100
AcDbBlockBegin
  2
*D298
 70
     1
 10
0.0
 20
0.0
 30
0.0
  3
*D298
  1

  0
LINE
  5
7B06
330
797C
100
AcDbEntity
  8
标注
370
    -2
100
AcDbLine
 10
1136.242178664015
 20
137.6492976462309
 30
0.0
 11
1140.952116510427
 21
137.6492976462309
 31
0.0
  0
LINE
  5
7B07
330
797C
100
AcDbEntity
  8
标注
370
    -2
100
AcDbLine
 10
1136.242178664129
 20
157.6492976461445
 30
0.0
 11
1140.952116510427
 21
157.6492976461445
 31
0.0
  0
LINE
  5
7B08
330
797C
100
AcDbEntity
  8
标注
370
    -2
100
AcDbLine
 10
1140.632116510427
 20
138.2992976462309
 30
0.0
 11
1140.632116510427
 21
146.7176980554646
 31
0.0
  0
LINE
  5
7B09
330
797C
100
AcDbEntity
  8
标注
370
    -2
100
AcDbLine
 10
1140.632116510427
 20
156.9992976461445
 30
0.0
 11
1140.632116510427
 21
148.5808972369108
 31
0.0
  0
SOLID
  5
7B0A
330
797C
100
AcDbEntity
  8
标注
100
AcDbTrace
 10
1140.523783177094
 20
138.2992976462309
 30
0.0
 11
1140.740449843761
 21
138.2992976462309
 31
0.0
 12
1140.632116510427
 22
137.6492976462309
 32
0.0
 13
1140.632116510427
 23
137.6492976462309
 33
0.0
  0
SOLID
  5
7B0B
330
797C
100
AcDbEntity
  8
标注
100
AcDbTrace
 10
1140.523783177094
 20
156.9992976461445
 30
0.0
 11
1140.740449843761
 21
156.9992976461445
 31
0.0
 12
1140.632116510427
 22
157.6492976461445
 32
0.0
 13
1140.632116510427
 23
157.6492976461445
 33
0.0
  0
MTEXT
  5
7B0C
330
797C
100
AcDbEntity
  8
标注
100
AcDbMText
 10
1140.632116510427
 20
147.6492976461879
 30
0.0
 40
0.65
 41
0.0
 71
     5
 72
     1
  1
\A1;20"
 11
0.0000000000000001
 21
1.0
 31
0.0
 73
     1
 44
1.0
1001
ACAD
1000
MTEXTBEGIN
1070
    73
1070
     1
1070
    44
1040
1.0
1070
    74
1070
     0
1000
MTEXTEND
  0
POINT
  5
7B0D
330
797C
100
AcDbEntity
  8
DEFPOINTS
 62
     0
100
AcDbPoint
 10
1135.362178664015
 20
137.6492976462309
 30
0.0
  0
POINT
  5
7B0E
330
797C
100
AcDbEntity
  8
DEFPOINTS
 62
     0
100
AcDbPoint
 10
1135.362178664128
 20
157.6492976461445
 30
0.0
  0
POINT
  5
7B0F
330
797C
100
AcDbEntity
  8
DEFPOINTS
 62
     0
100
AcDbPoint
 10
1140.632116510427
 20
157.6492976461445
 30
0.0
  0
ENDBLK
  5
797E
330
797C
100
AcDbEntity
  8
0
100
AcDbBlockEnd
  0
BLOCK
  5
798A
330
7989
100
AcDbEntity
  8
0
100
AcDbBlockBegin
  2
*D299
 70
     1
 10
0.0
 20
0.0
 30
0.0
  3
*D299
  1

  0
LINE
  5
7B10
330
7989
100
AcDbEntity
  8
标注
370
    -2
100
AcDbLine
 10
1104.875879451521
 20
138.6492976462309
 30
0.0
 11
1102.35095112321
 21
138.6492976462309
 31
0.0
  0
LINE
  5
7B11
330
7989
100
AcDbEntity
  8
标注
370
    -2
100
AcDbLine
 10
1104.875879451521
 20
153.6492976461727
 30
0.0
 11
1102.35095112321
 21
153.6492976461727
 31
0.0
  0
LINE
  5
7B12
330
7989
100
AcDbEntity
  8
标注
370
    -2
100
AcDbLine
 10
1102.67095112321
 20
139.2992976462309
 30
0.0
 11
1102.67095112321
 21
145.2538337989986
 31
0.0
  0
LINE
  5
7B13
330
7989
100
AcDbEntity
  8
标注
370
    -2
100
AcDbLine
 10
1102.67095112321
 20
152.9992976461727
 30
0.0
 11
1102.67095112321
 21
147.0447614934051
 31
0.0
  0
SOLID
  5
7B14
330
7989
100
AcDbEntity
  8
标注
100
AcDbTrace
 10
1102.562617789876
 20
139.2992976462309
 30
0.0
 11
1102.779284456543
 21
139.2992976462309
 31
0.0
 12
1102.67095112321
 22
138.6492976462309
 32
0.0
 13
1102.67095112321
 23
138.6492976462309
 33
0.0
  0
SOLID
  5
7B15
330
7989
100
AcDbEntity
  8
标注
100
AcDbTrace
 10
1102.562617789876
 20
152.9992976461727
 30
0.0
 11
1102.779284456543
 21
152.9992976461727
 31
0.0
 12
1102.67095112321
 22
153.6492976461727
 32
0.0
 13
1102.67095112321
 23
153.6492976461727
 33
0.0
  0
MTEXT
  5
7B16
330
7989
100
AcDbEntity
  8
标注
100
AcDbMText
 10
1102.67095112321
 20
146.149297646202
 30
0.0
 40
0.65
 41
0.0
 71
     5
 72
     1
  1
\A1;15"
 11
0.0000000000000001
 21
1.0
 31
0.0
 73
     1
 44
1.0
1001
ACAD
1000
MTEXTBEGIN
1070
    73
1070
     1
1070
    44
1040
1.0
1070
    74
1070
     0
1000
MTEXTEND
  0
POINT
  5
7B17
330
7989
100
AcDbEntity
  8
DEFPOINTS
 62
     0
100
AcDbPoint
 10
1105.755879451521
 20
138.6492976462309
 30
0.0
  0
POINT
  5
7B18
330
7989
100
AcDbEntity
  8
DEFPOINTS
 62
     0
100
AcDbPoint
 10
1105.755879451521
 20
153.6492976461727
 30
0.0
  0
POINT
  5
7B19
330
7989
100
AcDbEntity
  8
DEFPOINTS
 62
     0
100
AcDbPoint
 10
1102.67095112321
 20
153.6492976461727
 30
0.0
  0
ENDBLK
  5
798B
330
7989
100
AcDbEntity
  8
0
100
AcDbBlockEnd
  0
BLOCK
  5
7997
330
7996
100
AcDbEntity
  8
0
100
AcDbBlockBegin
  2
*D300
 70
     1
 10
0.0
 20
0.0
 30
0.0
  3
*D300
  1

  0
LINE
  5
7B1A
330
7996
100
AcDbEntity
  8
标注
370
    -2
100
AcDbLine
 10
1104.482178664131
 20
137.6492976462309
 30
0.0
 11
1100.633971780867
 21
137.6492976462309
 31
0.0
  0
LINE
  5
7B1B
330
7996
100
AcDbEntity
  8
标注
370
    -2
100
AcDbLine
 10
1104.482178664131
 20
154.6492976461727
 30
0.0
 11
1100.633971780867
 21
154.6492976461727
 31
0.0
  0
LINE
  5
7B1C
330
7996
100
AcDbEntity
  8
标注
370
    -2
100
AcDbLine
 10
1100.953971780866
 20
138.2992976462309
 30
0.0
 11
1100.953971780866
 21
145.2538337989986
 31
0.0
  0
LINE
  5
7B1D
330
7996
100
AcDbEntity
  8
标注
370
    -2
100
AcDbLine
 10
1100.953971780866
 20
153.9992976461727
 30
0.0
 11
1100.953971780866
 21
147.0447614934051
 31
0.0
  0
SOLID
  5
7B1E
330
7996
100
AcDbEntity
  8
标注
100
AcDbTrace
 10
1100.845638447533
 20
138.2992976462309
 30
0.0
 11
1101.0623051142
 21
138.2992976462309
 31
0.0
 12
1100.953971780866
 22
137.6492976462309
 32
0.0
 13
1100.953971780866
 23
137.6492976462309
 33
0.0
  0
SOLID
  5
7B1F
330
7996
100
AcDbEntity
  8
标注
100
AcDbTrace
 10
1100.845638447533
 20
153.9992976461727
 30
0.0
 11
1101.0623051142
 21
153.9992976461727
 31
0.0
 12
1100.953971780866
 22
154.6492976461727
 32
0.0
 13
1100.953971780866
 23
154.6492976461727
 33
0.0
  0
MTEXT
  5
7B20
330
7996
100
AcDbEntity
  8
标注
100
AcDbMText
 10
1100.953971780866
 20
146.149297646202
 30
0.0
 40
0.65
 41
0.0
 71
     5
 72
     1
  1
\A1;17"
 11
0.0000000000000001
 21
1.0
 31
0.0
 73
     1
 44
1.0
1001
ACAD
1000
MTEXTBEGIN
1070
    73
1070
     1
1070
    44
1040
1.0
1070
    74
1070
     0
1000
MTEXTEND
  0
POINT
  5
7B21
330
7996
100
AcDbEntity
  8
DEFPOINTS
 62
     0
100
AcDbPoint
 10
1105.362178664131
 20
137.6492976462309
 30
0.0
  0
POINT
  5
7B22
330
7996
100
AcDbEntity
  8
DEFPOINTS
 62
     0
100
AcDbPoint
 10
1105.362178664131
 20
154.6492976461727
 30
0.0
  0
POINT
  5
7B23
330
7996
100
AcDbEntity
  8
DEFPOINTS
 62
     0
100
AcDbPoint
 10
1100.953971780866
 20
154.6492976461727
 30
0.0
  0
ENDBLK
  5
7998
330
7996
100
AcDbEntity
  8
0
100
AcDbBlockEnd
  0
BLOCK
  5
79A4
330
79A3
100
AcDbEntity
  8
0
100
AcDbBlockBegin
  2
*D301
 70
     1
 10
0.0
 20
0.0
 30
0.0
  3
*D301
  1

  0
LINE
  5
7B24
330
79A3
100
AcDbEntity
  8
标注
370
    -2
100
AcDbLine
 10
1136.362178664015
 20
137.7692976462309
 30
0.0
 11
1136.362178664015
 21
133.3930756036228
 31
0.0
  0
LINE
  5
7B25
330
79A3
100
AcDbEntity
  8
标注
370
    -2
100
AcDbLine
 10
1104.362178664131
 20
137.7692976462309
 30
0.0
 11
1104.362178664131
 21
133.3930756036228
 31
0.0
  0
LINE
  5
7B26
330
79A3
100
AcDbEntity
  8
标注
370
    -2
100
AcDbLine
 10
1135.712178664015
 20
133.7130756036228
 30
0.0
 11
1121.288014271167
 21
133.7130756036228
 31
0.0
  0
LINE
  5
7B27
330
79A3
100
AcDbEntity
  8
标注
370
    -2
100
AcDbLine
 10
1105.012178664131
 20
133.7130756036228
 30
0.0
 11
1119.436343056979
 21
133.7130756036228
 31
0.0
  0
SOLID
  5
7B28
330
79A3
100
AcDbEntity
  8
标注
100
AcDbTrace
 10
1135.712178664015
 20
133.8214089369561
 30
0.0
 11
1135.712178664015
 21
133.6047422702895
 31
0.0
 12
1136.362178664015
 22
133.7130756036228
 32
0.0
 13
1136.362178664015
 23
133.7130756036228
 33
0.0
  0
SOLID
  5
7B29
330
79A3
100
AcDbEntity
  8
标注
100
AcDbTrace
 10
1105.012178664131
 20
133.8214089369561
 30
0.0
 11
1105.012178664131
 21
133.6047422702895
 31
0.0
 12
1104.362178664131
 22
133.7130756036228
 32
0.0
 13
1104.362178664131
 23
133.7130756036228
 33
0.0
  0
MTEXT
  5
7B2A
330
79A3
100
AcDbEntity
  8
标注
100
AcDbMText
 10
1120.362178664073
 20
133.7130756036228
 30
0.0
 40
0.65
 41
0.0
 71
     5
 72
     1
  1
\A1;32"
 73
     1
 44
1.0
1001
ACAD
1000
MTEXTBEGIN
1070
    73
1070
     1
1070
    44
1040
1.0
1070
    74
1070
     0
1000
MTEXTEND
  0
POINT
  5
7B2B
330
79A3
100
AcDbEntity
  8
DEFPOINTS
 62
     0
100
AcDbPoint
 10
1136.362178664015
 20
138.6492976462309
 30
0.0
  0
POINT
  5
7B2C
330
79A3
100
AcDbEntity
  8
DEFPOINTS
 62
     0
100
AcDbPoint
 10
1104.362178664131
 20
138.6492976462309
 30
0.0
  0
POINT
  5
7B2D
330
79A3
100
AcDbEntity
  8
DEFPOINTS
 62
     0
100
AcDbPoint
 10
1104.362178664131
 20
133.7130756036228
 30
0.0
  0
ENDBLK
  5
79A5
330
79A3
100
AcDbEntity
  8
0
100
AcDbBlockEnd
  0
BLOCK
  5
79B1
330
79B0
100
AcDbEntity
  8
0
100
AcDbBlockBegin
  2
*D302
 70
     1
 10
0.0
 20
0.0
 30
0.0
  3
*D302
  1

  0
LINE
  5
7B2E
330
79B0
100
AcDbEntity
  8
标注
370
    -2
100
AcDbLine
 10
1135.704951636844
 20
156.9951357246205
 30
0.0
 11
1136.16361560445
 21
157.4557085905383
 31
0.0
  0
MTEXT
  5
7B2F
330
79B0
100
AcDbEntity
  8
标注
100
AcDbMText
 10
1135.980962583455
 20
158.3447249952713
 30
0.0
 40
0.65
 41
0.0
 71
     5
 72
     1
  1
\A1;5-R3/8"
 11
0.7056368732402606
 21
0.7085736398735904
 31
0.0
 73
     1
 44
1.0
1001
ACAD
1000
MTEXTBEGIN
1070
    73
1070
     1
1070
    44
1040
1.0
1070
    74
1070
     0
1000
MTEXTEND
  0
LINE
  5
7B30
330
79B0
100
AcDbEntity
  8
标注
370
    -2
100
AcDbLine
 10
1134.968477876624
 20
156.2555968587533
 30
0.0
 11
1135.246287669238
 21
156.5345628587027
 31
0.0
  0
SOLID
  5
7B31
330
79B0
100
AcDbEntity
  8
标注
100
AcDbTrace
 10
1135.628189492524
 20
157.0715797192215
 30
0.0
 11
1135.781713781164
 21
156.9186917300195
 31
0.0
 12
1135.246287669238
 22
156.5345628587027
 32
0.0
 13
1135.246287669238
 23
156.5345628587027
 33
0.0
  0
ARC
  5
7B32
330
79B0
100
AcDbEntity
  8
标注
370
    -2
100
AcDbCircle
 10
1134.968477876624
 20
156.2555968587533
 30
0.0
 40
0.3937007874004621
100
AcDbArc
 50
358.5489713484017
 51
89.99999999999998
  0
POINT
  5
7B33
330
79B0
100
AcDbEntity
  8
DEFPOINTS
 62
     0
100
AcDbPoint
 10
1135.246287669238
 20
156.5345628587027
 30
0.0
  0
POINT
  5
7B34
330
79B0
100
AcDbEntity
  8
DEFPOINTS
 62
     0
100
AcDbPoint
 10
1134.968477876624
 20
156.2555968587533
 30
0.0
  0
ENDBLK
  5
79B2
330
79B0
100
AcDbEntity
  8
0
100
AcDbBlockEnd
  0
BLOCK
  5
79BA
330
79B9
100
AcDbEntity
  8
0
100
AcDbBlockBegin
  2
*D303
 70
     1
 10
0.0
 20
0.0
 30
0.0
  3
*D303
  1

  0
LINE
  5
7B35
330
79B9
100
AcDbEntity
  8
标注
370
    -2
100
AcDbLine
 10
1105.289633482125
 20
154.1893666535611
 30
0.0
 11
1104.999263019856
 21
154.7709034061761
 31
0.0
  0
MTEXT
  5
7B36
330
79B9
100
AcDbEntity
  8
标注
100
AcDbMText
 10
1105.050572845461
 20
155.8799004967973
 30
0.0
 40
0.65
 41
0.0
 71
     5
 72
     1
  1
\A1;4-R3/8"
 11
0.4467237881056182
 21
-0.894671927099854
 31
0.0
 73
     1
 44
1.0
1001
ACAD
1000
MTEXTBEGIN
1070
    73
1070
     1
1070
    44
1040
1.0
1070
    74
1070
     0
1000
MTEXTEND
  0
LINE
  5
7B37
330
79B9
100
AcDbEntity
  8
标注
370
    -2
100
AcDbLine
 10
1105.755879451521
 20
153.2555968587827
 30
0.0
 11
1105.580003944394
 21
153.6078299009463
 31
0.0
  0
SOLID
  5
7B38
330
79B9
100
AcDbEntity
  8
标注
100
AcDbTrace
 10
1105.386556274228
 20
154.2377617306059
 30
0.0
 11
1105.192710690023
 21
154.1409715765163
 31
0.0
 12
1105.580003944394
 22
153.6078299009463
 32
0.0
 13
1105.580003944394
 23
153.6078299009463
 33
0.0
  0
ARC
  5
7B39
330
79B9
100
AcDbEntity
  8
标注
370
    -2
100
AcDbCircle
 10
1105.755879451521
 20
153.2555968587827
 30
0.0
 40
0.3937007873996094
100
AcDbArc
 50
90.0
 51
163.1036886682856
  0
POINT
  5
7B3A
330
79B9
100
AcDbEntity
  8
DEFPOINTS
 62
     0
100
AcDbPoint
 10
1105.580003944394
 20
153.6078299009463
 30
0.0
  0
POINT
  5
7B3B
330
79B9
100
AcDbEntity
  8
DEFPOINTS
 62
     0
100
AcDbPoint
 10
1105.755879451521
 20
153.2555968587827
 30
0.0
  0
ENDBLK
  5
79BB
330
79B9
100
AcDbEntity
  8
0
100
AcDbBlockEnd
  0
BLOCK
  5
79C3
330
79C2
100
AcDbEntity
  8
0
100
AcDbBlockBegin
  2
*D304
 70
     1
 10
0.0
 20
0.0
 30
0.0
  3
*D304
  1

  0
LINE
  5
7B3C
330
79C2
100
AcDbEntity
  8
标注
370
    -2
100
AcDbLine
 10
1103.482178664131
 20
180.2520553898191
 30
0.0
 11
1102.876771260836
 21
180.2520553898191
 31
0.0
  0
LINE
  5
7B3D
330
79C2
100
AcDbEntity
  8
标注
370
    -2
100
AcDbLine
 10
1104.371244608824
 20
172.3114609016493
 30
0.0
 11
1102.876771260836
 21
172.3114609016493
 31
0.0
  0
LINE
  5
7B3E
330
79C2
100
AcDbEntity
  8
标注
370
    -2
100
AcDbLine
 10
1103.196771260837
 20
179.6020553898191
 30
0.0
 11
1103.196771260837
 21
176.95575200658
 31
0.0
  0
LINE
  5
7B3F
330
79C2
100
AcDbEntity
  8
标注
370
    -2
100
AcDbLine
 10
1103.196771260837
 20
172.9614609016492
 30
0.0
 11
1103.196771260837
 21
175.6077642848883
 31
0.0
  0
SOLID
  5
7B40
330
79C2
100
AcDbEntity
  8
标注
100
AcDbTrace
 10
1103.088437927503
 20
179.6020553898191
 30
0.0
 11
1103.30510459417
 21
179.6020553898191
 31
0.0
 12
1103.196771260837
 22
180.2520553898191
 32
0.0
 13
1103.196771260837
 23
180.2520553898191
 33
0.0
  0
SOLID
  5
7B41
330
79C2
100
AcDbEntity
  8
标注
100
AcDbTrace
 10
1103.088437927503
 20
172.9614609016492
 30
0.0
 11
1103.30510459417
 21
172.9614609016492
 31
0.0
 12
1103.196771260837
 22
172.3114609016493
 32
0.0
 13
1103.196771260837
 23
172.3114609016493
 33
0.0
  0
MTEXT
  5
7B42
330
79C2
100
AcDbEntity
  8
标注
100
AcDbMText
 10
1103.196771260837
 20
176.2817581457344
 30
0.0
 40
0.65
 41
0.0
 71
     5
 72
     1
  1
\A1;8"
 11
0.0000000000000001
 21
1.0
 31
0.0
 73
     1
 44
1.0
1001
ACAD
1000
MTEXTBEGIN
1070
    73
1070
     1
1070
    44
1040
1.0
1070
    74
1070
     0
1000
MTEXTEND
  0
POINT
  5
7B43
330
79C2
100
AcDbEntity
  8
DEFPOINTS
 62
     0
100
AcDbPoint
 10
1104.362178664131
 20
180.2520553898191
 30
0.0
  0
POINT
  5
7B44
330
79C2
100
AcDbEntity
  8
DEFPOINTS
 62
     0
100
AcDbPoint
 10
1105.251244608824
 20
172.3114609016493
 30
0.0
  0
POINT
  5
7B45
330
79C2
100
AcDbEntity
  8
DEFPOINTS
 62
     0
100
AcDbPoint
 10
1103.196771260837
 20
172.3114609016493
 30
0.0
  0
ENDBLK
  5
79C4
330
79C2
100
AcDbEntity
  8
0
100
AcDbBlockEnd
  0
BLOCK
  5
79D0
330
79CF
100
AcDbEntity
  8
0
100
AcDbBlockBegin
  2
*D305
 70
     1
 10
0.0
 20
0.0
 30
0.0
  3
*D305
  1

  0
LINE
  5
7B46
330
79CF
100
AcDbEntity
  8
标注
370
    -2
100
AcDbLine
 10
1137.242178664015
 20
180.2520553898191
 30
0.0
 11
1139.283592496251
 21
180.2520553898191
 31
0.0
  0
LINE
  5
7B47
330
79CF
100
AcDbEntity
  8
标注
370
    -2
100
AcDbLine
 10
1137.104630280816
 20
170.1897237893847
 30
0.0
 11
1139.283592496251
 21
170.1897237893847
 31
0.0
  0
LINE
  5
7B48
330
79CF
100
AcDbEntity
  8
标注
370
    -2
100
AcDbLine
 10
1138.963592496251
 20
179.6020553898191
 30
0.0
 11
1138.963592496251
 21
176.1163534368052
 31
0.0
  0
LINE
  5
7B49
330
79CF
100
AcDbEntity
  8
标注
370
    -2
100
AcDbLine
 10
1138.963592496251
 20
170.8397237893848
 30
0.0
 11
1138.963592496251
 21
174.3254257423986
 31
0.0
  0
SOLID
  5
7B4A
330
79CF
100
AcDbEntity
  8
标注
100
AcDbTrace
 10
1138.855259162918
 20
179.6020553898191
 30
0.0
 11
1139.071925829584
 21
179.6020553898191
 31
0.0
 12
1138.963592496251
 22
180.2520553898191
 32
0.0
 13
1138.963592496251
 23
180.2520553898191
 33
0.0
  0
SOLID
  5
7B4B
330
79CF
100
AcDbEntity
  8
标注
100
AcDbTrace
 10
1138.855259162918
 20
170.8397237893848
 30
0.0
 11
1139.071925829584
 21
170.8397237893848
 31
0.0
 12
1138.963592496251
 22
170.1897237893847
 32
0.0
 13
1138.963592496251
 23
170.1897237893847
 33
0.0
  0
MTEXT
  5
7B4C
330
79CF
100
AcDbEntity
  8
标注
100
AcDbMText
 10
1138.963592496251
 20
175.2208895896021
 30
0.0
 40
0.65
 41
0.0
 71
     5
 72
     1
  1
\A1;10"
 11
0.0000000000000001
 21
1.0
 31
0.0
 73
     1
 44
1.0
1001
ACAD
1000
MTEXTBEGIN
1070
    73
1070
     1
1070
    44
1040
1.0
1070
    74
1070
     0
1000
MTEXTEND
  0
POINT
  5
7B4D
330
79CF
100
AcDbEntity
  8
DEFPOINTS
 62
     0
100
AcDbPoint
 10
1136.362178664015
 20
180.2520553898191
 30
0.0
  0
POINT
  5
7B4E
330
79CF
100
AcDbEntity
  8
DEFPOINTS
 62
     0
100
AcDbPoint
 10
1136.224630280816
 20
170.1897237893847
 30
0.0
  0
POINT
  5
7B4F
330
79CF
100
AcDbEntity
  8
DEFPOINTS
 62
     0
100
AcDbPoint
 10
1138.963592496251
 20
170.1897237893847
 30
0.0
  0
ENDBLK
  5
79D1
330
79CF
100
AcDbEntity
  8
0
100
AcDbBlockEnd
  0
BLOCK
  5
79DD
330
79DC
100
AcDbEntity
  8
0
100
AcDbBlockBegin
  2
*D306
 70
     1
 10
0.0
 20
0.0
 30
0.0
  3
*D306
  1

  0
LINE
  5
7B50
330
79DC
100
AcDbEntity
  8
标注
370
    -2
100
AcDbLine
 10
1135.7789757872
 20
170.0507709463767
 30
0.0
 11
1136.28374080054
 21
169.6412440470058
 31
0.0
  0
MTEXT
  5
7B51
330
79DC
100
AcDbEntity
  8
标注
100
AcDbMText
 10
1134.38270481726
 20
171.6841163083834
 30
0.0
 40
0.65
 41
0.0
 71
     5
 72
     1
  1
\A1;R3/8"
 11
0.7765615589838497
 21
-0.6300413836475926
 31
0.0
 73
     1
 44
1.0
1001
ACAD
1000
MTEXTBEGIN
1070
    73
1070
     1
1070
    44
1040
1.0
1070
    74
1070
     0
1000
MTEXTEND
  0
LINE
  5
7B52
330
79DC
100
AcDbEntity
  8
标注
370
    -2
100
AcDbLine
 10
1134.968477876624
 20
170.7083456345844
 30
0.0
 11
1135.274210773861
 21
170.4602978457477
 31
0.0
  0
SOLID
  5
7B53
330
79DC
100
AcDbEntity
  8
标注
100
AcDbTrace
 10
1135.847230270429
 20
170.1348984485999
 30
0.0
 11
1135.710721303972
 21
169.9666434441535
 31
0.0
 12
1135.274210773861
 22
170.4602978457477
 32
0.0
 13
1135.274210773861
 23
170.4602978457477
 33
0.0
  0
ARC
  5
7B54
330
79DC
100
AcDbEntity
  8
标注
370
    -2
100
AcDbCircle
 10
1134.968477876624
 20
170.7083456345844
 30
0.0
 40
0.393700787400121
100
AcDbArc
 50
268.8525960680906
 51
7.516833775809833
  0
POINT
  5
7B55
330
79DC
100
AcDbEntity
  8
DEFPOINTS
 62
     0
100
AcDbPoint
 10
1135.274210773861
 20
170.4602978457477
 30
0.0
  0
POINT
  5
7B56
330
79DC
100
AcDbEntity
  8
DEFPOINTS
 62
     0
100
AcDbPoint
 10
1134.968477876624
 20
170.7083456345844
 30
0.0
  0
ENDBLK
  5
79DE
330
79DC
100
AcDbEntity
  8
0
100
AcDbBlockEnd
  0
BLOCK
  5
79E6
330
79E5
100
AcDbEntity
  8
0
100
AcDbBlockBegin
  2
*D307
 70
     1
 10
0.0
 20
0.0
 30
0.0
  3
*D307
  1

  0
LINE
  5
7B57
330
79E5
100
AcDbEntity
  8
标注
370
    -2
100
AcDbLine
 10
1116.708952395035
 20
171.9753720636371
 30
0.0
 11
1117.170107970196
 21
171.5172939747728
 31
0.0
  0
MTEXT
  5
7B58
330
79E5
100
AcDbEntity
  8
标注
100
AcDbMText
 10
1115.430537772169
 20
173.7005345679518
 30
0.0
 40
0.65
 41
0.0
 71
     5
 72
     1
  1
\A1;R3/8"
 11
0.7094701156328545
 21
-0.7047355213297426
 31
0.0
 73
     1
 44
1.0
1001
ACAD
1000
MTEXTBEGIN
1070
    73
1070
     1
1070
    44
1040
1.0
1070
    74
1070
     0
1000
MTEXTEND
  0
LINE
  5
7B59
330
79E5
100
AcDbEntity
  8
标注
370
    -2
100
AcDbLine
 10
1115.968477876712
 20
172.7109050821578
 30
0.0
 11
1116.247796819873
 21
172.4334501525014
 31
0.0
  0
SOLID
  5
7B5A
330
79E5
100
AcDbEntity
  8
标注
100
AcDbTrace
 10
1116.785298743179
 20
172.052231326164
 30
0.0
 11
1116.632606046891
 21
171.8985128011102
 31
0.0
 12
1116.247796819873
 22
172.4334501525014
 32
0.0
 13
1116.247796819873
 23
172.4334501525014
 33
0.0
  0
ARC
  5
7B5B
330
79E5
100
AcDbEntity
  8
标注
370
    -2
100
AcDbCircle
 10
1115.968477876712
 20
172.7109050821578
 30
0.0
 40
0.3937007874002347
100
AcDbArc
 50
267.2870574572279
 51
1.761828409283117
  0
POINT
  5
7B5C
330
79E5
100
AcDbEntity
  8
DEFPOINTS
 62
     0
100
AcDbPoint
 10
1116.247796819873
 20
172.4334501525014
 30
0.0
  0
POINT
  5
7B5D
330
79E5
100
AcDbEntity
  8
DEFPOINTS
 62
     0
100
AcDbPoint
 10
1115.968477876712
 20
172.7109050821578
 30
0.0
  0
ENDBLK
  5
79E7
330
79E5
100
AcDbEntity
  8
0
100
AcDbBlockEnd
  0
BLOCK
  5
79EF
330
79EE
100
AcDbEntity
  8
0
100
AcDbBlockBegin
  2
*D308
 70
     1
 10
0.0
 20
0.0
 30
0.0
  3
*D308
  1

  0
LINE
  5
7B5E
330
79EE
100
AcDbEntity
  8
标注
370
    -2
100
AcDbLine
 10
1135.440918821493
 20
102.9269107860633
 30
0.0
 11
1135.440918821493
 21
100.45367402825
 31
0.0
  0
LINE
  5
7B5F
330
79EE
100
AcDbEntity
  8
标注
370
    -2
100
AcDbLine
 10
1105.283438506653
 20
102.9269107860633
 30
0.0
 11
1105.283438506653
 21
100.45367402825
 31
0.0
  0
LINE
  5
7B60
330
79EE
100
AcDbEntity
  8
标注
370
    -2
100
AcDbLine
 10
1134.790918821493
 20
100.77367402825
 30
0.0
 11
1122.045313043336
 21
100.77367402825
 31
0.0
  0
LINE
  5
7B61
330
79EE
100
AcDbEntity
  8
标注
370
    -2
100
AcDbLine
 10
1105.933438506653
 20
100.77367402825
 30
0.0
 11
1118.67904428481
 21
100.77367402825
 31
0.0
  0
SOLID
  5
7B62
330
79EE
100
AcDbEntity
  8
标注
100
AcDbTrace
 10
1134.790918821493
 20
100.8820073615833
 30
0.0
 11
1134.790918821493
 21
100.6653406949167
 31
0.0
 12
1135.440918821493
 22
100.77367402825
 32
0.0
 13
1135.440918821493
 23
100.77367402825
 33
0.0
  0
SOLID
  5
7B63
330
79EE
100
AcDbEntity
  8
标注
100
AcDbTrace
 10
1105.933438506653
 20
100.8820073615833
 30
0.0
 11
1105.933438506653
 21
100.6653406949167
 31
0.0
 12
1105.283438506653
 22
100.77367402825
 32
0.0
 13
1105.283438506653
 23
100.77367402825
 33
0.0
  0
MTEXT
  5
7B64
330
79EE
100
AcDbEntity
  8
标注
100
AcDbMText
 10
1120.362178664073
 20
100.77367402825
 30
0.0
 40
0.65
 41
0.0
 71
     5
 72
     1
  1
\A1;30 1/8"
 73
     1
 44
1.0
1001
ACAD
1000
MTEXTBEGIN
1070
    73
1070
     1
1070
    44
1040
1.0
1070
    74
1070
     0
1000
MTEXTEND
  0
POINT
  5
7B65
330
79EE
100
AcDbEntity
  8
DEFPOINTS
 62
     0
100
AcDbPoint
 10
1135.440918821493
 20
103.8069107860633
 30
0.0
  0
POINT
  5
7B66
330
79EE
100
AcDbEntity
  8
DEFPOINTS
 62
     0
100
AcDbPoint
 10
1105.283438506653
 20
103.8069107860633
 30
0.0
  0
POINT
  5
7B67
330
79EE
100
AcDbEntity
  8
DEFPOINTS
 62
     0
100
AcDbPoint
 10
1105.283438506653
 20
100.77367402825
 30
0.0
  0
ENDBLK
  5
79F0
330
79EE
100
AcDbEntity
  8
0
100
AcDbBlockEnd
  0
BLOCK
  5
79FC
330
79FB
100
AcDbEntity
  8
0
100
AcDbBlockBegin
  2
*D309
 70
     1
 10
0.0
 20
0.0
 30
0.0
  3
*D309
  1

  0
LINE
  5
7B68
330
79FB
100
AcDbEntity
  8
标注
370
    -2
100
AcDbLine
 10
1104.875879451521
 20
103.3344698411661
 30
0.0
 11
1102.719920498143
 21
103.3344698411661
 31
0.0
  0
LINE
  5
7B69
330
79FB
100
AcDbEntity
  8
标注
370
    -2
100
AcDbLine
 10
1104.875879451521
 20
118.4919501560758
 30
0.0
 11
1102.719920498143
 21
118.4919501560758
 31
0.0
  0
LINE
  5
7B6A
330
79FB
100
AcDbEntity
  8
标注
370
    -2
100
AcDbLine
 10
1103.039920498143
 20
103.9844698411661
 30
0.0
 11
1103.039920498143
 21
109.2604473792485
 31
0.0
  0
LINE
  5
7B6B
330
79FB
100
AcDbEntity
  8
标注
370
    -2
100
AcDbLine
 10
1103.039920498143
 20
117.8419501560758
 30
0.0
 11
1103.039920498143
 21
112.5659726179934
 31
0.0
  0
SOLID
  5
7B6C
330
79FB
100
AcDbEntity
  8
标注
100
AcDbTrace
 10
1102.93158716481
 20
103.9844698411661
 30
0.0
 11
1103.148253831476
 21
103.9844698411661
 31
0.0
 12
1103.039920498143
 22
103.3344698411661
 32
0.0
 13
1103.039920498143
 23
103.3344698411661
 33
0.0
  0
SOLID
  5
7B6D
330
79FB
100
AcDbEntity
  8
标注
100
AcDbTrace
 10
1102.93158716481
 20
117.8419501560758
 30
0.0
 11
1103.148253831476
 21
117.8419501560758
 31
0.0
 12
1103.039920498143
 22
118.4919501560758
 32
0.0
 13
1103.039920498143
 23
118.4919501560758
 33
0.0
  0
MTEXT
  5
7B6E
330
79FB
100
AcDbEntity
  8
标注
100
AcDbMText
 10
1103.039920498143
 20
110.9132099986211
 30
0.0
 40
0.65
 41
0.0
 71
     5
 72
     1
  1
\A1;15 1/8"
 11
0.0000000000000001
 21
1.0
 31
0.0
 73
     1
 44
1.0
1001
ACAD
1000
MTEXTBEGIN
1070
    73
1070
     1
1070
    44
1040
1.0
1070
    74
1070
     0
1000
MTEXTEND
  0
POINT
  5
7B6F
330
79FB
100
AcDbEntity
  8
DEFPOINTS
 62
     0
100
AcDbPoint
 10
1105.755879451521
 20
103.3344698411661
 30
0.0
  0
POINT
  5
7B70
330
79FB
100
AcDbEntity
  8
DEFPOINTS
 62
     0
100
AcDbPoint
 10
1105.755879451521
 20
118.4919501560758
 30
0.0
  0
POINT
  5
7B71
330
79FB
100
AcDbEntity
  8
DEFPOINTS
 62
     0
100
AcDbPoint
 10
1103.039920498143
 20
118.4919501560758
 30
0.0
  0
ENDBLK
  5
79FD
330
79FB
100
AcDbEntity
  8
0
100
AcDbBlockEnd
  0
BLOCK
  5
7A09
330
7A08
100
AcDbEntity
  8
0
100
AcDbBlockBegin
  2
*D310
 70
     1
 10
0.0
 20
0.0
 30
0.0
  3
*D310
  1

  0
LINE
  5
7B72
330
7A08
100
AcDbEntity
  8
标注
370
    -2
100
AcDbLine
 10
1135.848477876625
 20
121.4919501560639
 30
0.0
 11
1138.232526729268
 21
121.4919501560639
 31
0.0
  0
LINE
  5
7B73
330
7A08
100
AcDbEntity
  8
标注
370
    -2
100
AcDbLine
 10
1135.848477876625
 20
103.3344698411661
 30
0.0
 11
1138.232526729268
 21
103.3344698411661
 31
0.0
  0
LINE
  5
7B74
330
7A08
100
AcDbEntity
  8
标注
370
    -2
100
AcDbLine
 10
1137.912526729268
 20
120.8419501560639
 30
0.0
 11
1137.912526729268
 21
114.0659726179874
 31
0.0
  0
LINE
  5
7B75
330
7A08
100
AcDbEntity
  8
标注
370
    -2
100
AcDbLine
 10
1137.912526729268
 20
103.9844698411661
 30
0.0
 11
1137.912526729268
 21
110.7604473792426
 31
0.0
  0
SOLID
  5
7B76
330
7A08
100
AcDbEntity
  8
标注
100
AcDbTrace
 10
1137.804193395934
 20
120.8419501560639
 30
0.0
 11
1138.020860062601
 21
120.8419501560639
 31
0.0
 12
1137.912526729268
 22
121.4919501560639
 32
0.0
 13
1137.912526729268
 23
121.4919501560639
 33
0.0
  0
SOLID
  5
7B77
330
7A08
100
AcDbEntity
  8
标注
100
AcDbTrace
 10
1137.804193395934
 20
103.9844698411661
 30
0.0
 11
1138.020860062601
 21
103.9844698411661
 31
0.0
 12
1137.912526729268
 22
103.3344698411661
 32
0.0
 13
1137.912526729268
 23
103.3344698411661
 33
0.0
  0
MTEXT
  5
7B78
330
7A08
100
AcDbEntity
  8
标注
100
AcDbMText
 10
1137.912526729268
 20
112.4132099986152
 30
0.0
 40
0.65
 41
0.0
 71
     5
 72
     1
  1
\A1;18 1/8"
 11
0.0000000000000001
 21
1.0
 31
0.0
 73
     1
 44
1.0
1001
ACAD
1000
MTEXTBEGIN
1070
    73
1070
     1
1070
    44
1040
1.0
1070
    74
1070
     0
1000
MTEXTEND
  0
POINT
  5
7B79
330
7A08
100
AcDbEntity
  8
DEFPOINTS
 62
     0
100
AcDbPoint
 10
1134.968477876625
 20
121.4919501560639
 30
0.0
  0
POINT
  5
7B7A
330
7A08
100
AcDbEntity
  8
DEFPOINTS
 62
     0
100
AcDbPoint
 10
1134.968477876625
 20
103.3344698411661
 30
0.0
  0
POINT
  5
7B7B
330
7A08
100
AcDbEntity
  8
DEFPOINTS
 62
     0
100
AcDbPoint
 10
1137.912526729268
 20
103.3344698411661
 30
0.0
  0
ENDBLK
  5
7A0A
330
7A08
100
AcDbEntity
  8
0
100
AcDbBlockEnd
  0
BLOCK
  5
7A16
330
7A15
100
AcDbEntity
  8
0
100
AcDbBlockBegin
  2
*D311
 70
     1
 10
0.0
 20
0.0
 30
0.0
  3
*D311
  1

  0
LINE
  5
7B7C
330
7A15
100
AcDbEntity
  8
标注
370
    -2
100
AcDbLine
 10
1135.580822802342
 20
102.8662156352885
 30
0.0
 11
1135.935428720393
 21
102.3214637258071
 31
0.0
  0
MTEXT
  5
7B7D
330
7A15
100
AcDbEntity
  8
标注
100
AcDbMText
 10
1134.573493511251
 20
104.9823665217169
 30
0.0
 40
0.65
 41
0.0
 71
     5
 72
     1
  1
\A1;4-R1/2"
 11
0.5455475662313044
 21
-0.8380798607406699
 31
0.0
 73
     1
 44
1.0
1001
ACAD
1000
MTEXTBEGIN
1070
    73
1070
     1
1070
    44
1040
1.0
1070
    74
1070
     0
1000
MTEXTEND
  0
LINE
  5
7B7E
330
7A15
100
AcDbEntity
  8
标注
370
    -2
100
AcDbLine
 10
1134.968477876625
 20
103.8069107860634
 30
0.0
 11
1135.226216884292
 21
103.4109675447699
 31
0.0
  0
SOLID
  5
7B7F
330
7A15
100
AcDbEntity
  8
标注
100
AcDbTrace
 10
1135.671614787256
 20
102.9253166216302
 30
0.0
 11
1135.490030817429
 21
102.8071146489468
 31
0.0
 12
1135.226216884292
 22
103.4109675447699
 32
0.0
 13
1135.226216884292
 23
103.4109675447699
 33
0.0
  0
ARC
  5
7B80
330
7A15
100
AcDbEntity
  8
标注
370
    -2
100
AcDbCircle
 10
1134.968477876625
 20
103.8069107860634
 30
0.0
 40
0.4724409448801908
100
AcDbArc
 50
270.0000000000001
 51
341.8704316601195
  0
POINT
  5
7B81
330
7A15
100
AcDbEntity
  8
DEFPOINTS
 62
     0
100
AcDbPoint
 10
1135.226216884292
 20
103.4109675447699
 30
0.0
  0
POINT
  5
7B82
330
7A15
100
AcDbEntity
  8
DEFPOINTS
 62
     0
100
AcDbPoint
 10
1134.968477876625
 20
103.8069107860634
 30
0.0
  0
ENDBLK
  5
7A17
330
7A15
100
AcDbEntity
  8
0
100
AcDbBlockEnd
  0
BLOCK
  5
7A1F
330
7A1E
100
AcDbEntity
  8
0
100
AcDbBlockBegin
  2
*D312
 70
     1
 10
0.0
 20
0.0
 30
0.0
  3
*D312
  1

  0
LINE
  5
7B83
330
7A1E
100
AcDbEntity
  8
标注
370
    -2
100
AcDbLine
 10
1117.694682599577
 20
117.992092217273
 30
0.0
 11
1118.01944525813
 21
117.4290387423619
 31
0.0
  0
MTEXT
  5
7B84
330
7A1E
100
AcDbEntity
  8
标注
100
AcDbMText
 10
1117.041512065369
 20
120.0034754309798
 30
0.0
 40
0.65
 41
0.0
 71
     5
 72
     1
  1
\A1;R1/2"
 11
0.4996348593125095
 21
-0.8662361152478975
 31
0.0
 73
     1
 44
1.0
1001
ACAD
1000
MTEXTBEGIN
1070
    73
1070
     1
1070
    44
1040
1.0
1070
    74
1070
     0
1000
MTEXTEND
  0
LINE
  5
7B85
330
7A1E
100
AcDbEntity
  8
标注
370
    -2
100
AcDbLine
 10
1117.133871975996
 20
118.9643911009609
 30
0.0
 11
1117.369919941024
 21
118.5551456921841
 31
0.0
  0
SOLID
  5
7B86
330
7A1E
100
AcDbEntity
  8
标注
100
AcDbTrace
 10
1117.788524845396
 20
118.0462193270319
 30
0.0
 11
1117.600840353759
 21
117.9379651075142
 31
0.0
 12
1117.369919941024
 22
118.5551456921841
 32
0.0
 13
1117.369919941024
 23
118.5551456921841
 33
0.0
  0
ARC
  5
7B87
330
7A1E
100
AcDbEntity
  8
标注
370
    -2
100
AcDbCircle
 10
1117.133871975996
 20
118.9643911009609
 30
0.0
 40
0.4724409448798497
100
AcDbArc
 50
270.0
 51
338.784186749136
  0
POINT
  5
7B88
330
7A1E
100
AcDbEntity
  8
DEFPOINTS
 62
     0
100
AcDbPoint
 10
1117.369919941024
 20
118.5551456921841
 30
0.0
  0
POINT
  5
7B89
330
7A1E
100
AcDbEntity
  8
DEFPOINTS
 62
     0
100
AcDbPoint
 10
1117.133871975996
 20
118.9643911009609
 30
0.0
  0
ENDBLK
  5
7A20
330
7A1E
100
AcDbEntity
  8
0
100
AcDbBlockEnd
  0
BLOCK
  5
7A28
330
7A27
100
AcDbEntity
  8
0
100
AcDbBlockBegin
  2
*D313
 70
     1
 10
0.0
 20
0.0
 30
0.0
  3
*D313
  1

  0
LINE
  5
7B8A
330
7A27
100
AcDbEntity
  8
标注
370
    -2
100
AcDbLine
 10
1120.146011079768
 20
122.0759408571511
 30
0.0
 11
1119.926392876692
 21
122.6877151986186
 31
0.0
  0
MTEXT
  5
7B8B
330
7A27
100
AcDbEntity
  8
标注
100
AcDbMText
 10
1120.508330853044
 20
122.8917439178633
 30
0.0
 40
0.65
 41
0.0
 71
     5
 72
     1
  1
\A1;R1/2"
 11
0.3378741585777398
 21
-0.9411912945652357
 31
0.0
 73
     1
 44
1.0
1001
ACAD
1000
MTEXTBEGIN
1070
    73
1070
     1
1070
    44
1040
1.0
1070
    74
1070
     0
1000
MTEXTEND
  0
LINE
  5
7B8C
330
7A27
100
AcDbEntity
  8
标注
370
    -2
100
AcDbLine
 10
1120.525254869572
 20
121.0195092111667
 30
0.0
 11
1120.365629282844
 21
121.4641665156837
 31
0.0
  0
SOLID
  5
7B8D
330
7A27
100
AcDbEntity
  8
标注
100
AcDbTrace
 10
1120.247973470013
 20
122.112543890997
 30
0.0
 11
1120.044048689523
 21
122.0393378233052
 31
0.0
 12
1120.365629282844
 22
121.4641665156837
 32
0.0
 13
1120.365629282844
 23
121.4641665156837
 33
0.0
  0
ARC
  5
7B8E
330
7A27
100
AcDbEntity
  8
标注
370
    -2
100
AcDbCircle
 10
1120.525254869572
 20
121.0195092111667
 30
0.0
 40
0.472440944879736
100
AcDbArc
 50
90.0
 51
148.5557504632996
  0
POINT
  5
7B8F
330
7A27
100
AcDbEntity
  8
DEFPOINTS
 62
     0
100
AcDbPoint
 10
1120.365629282844
 20
121.4641665156837
 30
0.0
  0
POINT
  5
7B90
330
7A27
100
AcDbEntity
  8
DEFPOINTS
 62
     0
100
AcDbPoint
 10
1120.525254869572
 20
121.0195092111667
 30
0.0
  0
ENDBLK
  5
7A29
330
7A27
100
AcDbEntity
  8
0
100
AcDbBlockEnd
  0
BLOCK
  5
7C8E
330
7C8D
100
AcDbEntity
  8
0
100
AcDbBlockBegin
  2
*D315
 70
     1
 10
0.0
 20
0.0
 30
0.0
  3
*D315
  1

  0
LINE
  5
7C90
330
7C8D
100
AcDbEntity
  8
标注
370
    -2
100
AcDbLine
 10
1158.700856327038
 20
107.0912979703644
 30
0.0
 11
1158.700856327038
 21
104.1161975752925
 31
0.0
  0
LINE
  5
7C91
330
7C8D
100
AcDbEntity
  8
标注
370
    -2
100
AcDbLine
 10
1188.858276327058
 20
107.0912979703644
 30
0.0
 11
1188.858276327058
 21
104.1161975752925
 31
0.0
  0
LINE
  5
7C92
330
7C8D
100
AcDbEntity
  8
标注
370
    -2
100
AcDbLine
 10
1159.350856327038
 20
104.4361975752924
 30
0.0
 11
1172.096431947785
 21
104.4361975752924
 31
0.0
  0
LINE
  5
7C93
330
7C8D
100
AcDbEntity
  8
标注
370
    -2
100
AcDbLine
 10
1188.208276327058
 20
104.4361975752924
 30
0.0
 11
1175.462700706312
 21
104.4361975752924
 31
0.0
  0
SOLID
  5
7C94
330
7C8D
100
AcDbEntity
  8
标注
100
AcDbTrace
 10
1159.350856327038
 20
104.5445309086258
 30
0.0
 11
1159.350856327038
 21
104.3278642419591
 31
0.0
 12
1158.700856327038
 22
104.4361975752924
 32
0.0
 13
1158.700856327038
 23
104.4361975752924
 33
0.0
  0
SOLID
  5
7C95
330
7C8D
100
AcDbEntity
  8
标注
100
AcDbTrace
 10
1188.208276327058
 20
104.5445309086258
 30
0.0
 11
1188.208276327058
 21
104.3278642419591
 31
0.0
 12
1188.858276327058
 22
104.4361975752924
 32
0.0
 13
1188.858276327058
 23
104.4361975752924
 33
0.0
  0
MTEXT
  5
7C96
330
7C8D
100
AcDbEntity
  8
标注
100
AcDbMText
 10
1173.779566327048
 20
104.4361975752924
 30
0.0
 40
0.65
 41
0.0
 71
     5
 72
     1
  1
\A1;30 1/8"
 73
     1
 44
1.0
1001
ACAD
1000
MTEXTBEGIN
1070
    73
1070
     1
1070
    44
1040
1.0
1070
    74
1070
     0
1000
MTEXTEND
  0
POINT
  5
7C97
330
7C8D
100
AcDbEntity
  8
DEFPOINTS
 62
     0
100
AcDbPoint
 10
1158.700856327038
 20
107.9712979703644
 30
0.0
  0
POINT
  5
7C98
330
7C8D
100
AcDbEntity
  8
DEFPOINTS
 62
     0
100
AcDbPoint
 10
1188.858276327058
 20
107.9712979703644
 30
0.0
  0
POINT
  5
7C99
330
7C8D
100
AcDbEntity
  8
DEFPOINTS
 62
     0
100
AcDbPoint
 10
1188.858276327058
 20
104.4361975752924
 30
0.0
  0
ENDBLK
  5
7C8F
330
7C8D
100
AcDbEntity
  8
0
100
AcDbBlockEnd
  0
BLOCK
  5
7C9C
330
7C9B
100
AcDbEntity
  8
0
100
AcDbBlockBegin
  2
*D316
 70
     1
 10
0.0
 20
0.0
 30
0.0
  3
*D316
  1

  0
LINE
  5
7C9E
330
7C9B
100
AcDbEntity
  8
标注
370
    -2
100
AcDbLine
 10
1189.265836327058
 20
107.4988579703667
 30
0.0
 11
1192.088898345164
 21
107.4988579703667
 31
0.0
  0
LINE
  5
7C9F
330
7C9B
100
AcDbEntity
  8
标注
370
    -2
100
AcDbLine
 10
1189.265836327058
 20
123.6563059703648
 30
0.0
 11
1192.088898345164
 21
123.6563059703648
 31
0.0
  0
LINE
  5
7CA0
330
7C9B
100
AcDbEntity
  8
标注
370
    -2
100
AcDbLine
 10
1191.768898345164
 20
108.1488579703667
 30
0.0
 11
1191.768898345164
 21
113.9248193509933
 31
0.0
  0
LINE
  5
7CA1
330
7C9B
100
AcDbEntity
  8
标注
370
    -2
100
AcDbLine
 10
1191.768898345164
 20
123.0063059703648
 30
0.0
 11
1191.768898345164
 21
117.2303445897382
 31
0.0
  0
SOLID
  5
7CA2
330
7C9B
100
AcDbEntity
  8
标注
100
AcDbTrace
 10
1191.660565011831
 20
108.1488579703667
 30
0.0
 11
1191.877231678498
 21
108.1488579703667
 31
0.0
 12
1191.768898345164
 22
107.4988579703667
 32
0.0
 13
1191.768898345164
 23
107.4988579703667
 33
0.0
  0
SOLID
  5
7CA3
330
7C9B
100
AcDbEntity
  8
标注
100
AcDbTrace
 10
1191.660565011831
 20
123.0063059703648
 30
0.0
 11
1191.877231678498
 21
123.0063059703648
 31
0.0
 12
1191.768898345164
 22
123.6563059703648
 32
0.0
 13
1191.768898345164
 23
123.6563059703648
 33
0.0
  0
MTEXT
  5
7CA4
330
7C9B
100
AcDbEntity
  8
标注
100
AcDbMText
 10
1191.768898345164
 20
115.5775819703659
 30
0.0
 40
0.65
 41
0.0
 71
     5
 72
     1
  1
\A1;16 1/8"
 11
0.0000000000000001
 21
1.0
 31
0.0
 73
     1
 44
1.0
1001
ACAD
1000
MTEXTBEGIN
1070
    73
1070
     1
1070
    44
1040
1.0
1070
    74
1070
     0
1000
MTEXTEND
  0
POINT
  5
7CA5
330
7C9B
100
AcDbEntity
  8
DEFPOINTS
 62
     0
100
AcDbPoint
 10
1188.385836327058
 20
107.4988579703667
 30
0.0
  0
POINT
  5
7CA6
330
7C9B
100
AcDbEntity
  8
DEFPOINTS
 62
     0
100
AcDbPoint
 10
1188.385836327058
 20
123.6563059703648
 30
0.0
  0
POINT
  5
7CA7
330
7C9B
100
AcDbEntity
  8
DEFPOINTS
 62
     0
100
AcDbPoint
 10
1191.768898345164
 20
123.6563059703648
 30
0.0
  0
ENDBLK
  5
7C9D
330
7C9B
100
AcDbEntity
  8
0
100
AcDbBlockEnd
  0
BLOCK
  5
7CAA
330
7CA9
100
AcDbEntity
  8
0
100
AcDbBlockBegin
  2
*D317
 70
     1
 10
0.0
 20
0.0
 30
0.0
  3
*D317
  1

  0
LINE
  5
7CB2
330
7CA9
100
AcDbEntity
  8
标注
370
    -2
100
AcDbLine
 10
1158.242571514858
 20
107.3439042522174
 30
0.0
 11
1157.703592925424
 21
106.9805833470504
 31
0.0
  0
MTEXT
  5
7CB3
330
7CA9
100
AcDbEntity
  8
标注
100
AcDbMText
 10
1159.803115025615
 20
108.8493087688254
 30
0.0
 40
0.65
 41
0.0
 71
     5
 72
     1
  1
\A1;4-R1/2"
 11
0.829197829899131
 21
0.5589552387182467
 31
0.0
 73
     1
 44
1.0
1001
ACAD
1000
MTEXTBEGIN
1070
    73
1070
     1
1070
    44
1040
1.0
1070
    74
1070
     0
1000
MTEXTEND
  0
LINE
  5
7CB4
330
7CA9
100
AcDbEntity
  8
标注
370
    -2
100
AcDbLine
 10
1159.173296327051
 20
107.9712979703644
 30
0.0
 11
1158.781550104293
 21
107.7072251573842
 31
0.0
  0
SOLID
  5
7CB5
330
7CA9
100
AcDbEntity
  8
标注
100
AcDbTrace
 10
1158.182018030664
 20
107.4337340171231
 30
0.0
 11
1158.303124999053
 21
107.2540744873116
 31
0.0
 12
1158.781550104293
 22
107.7072251573842
 32
0.0
 13
1158.781550104293
 23
107.7072251573842
 33
0.0
  0
POINT
  5
7CB6
330
7CA9
100
AcDbEntity
  8
DEFPOINTS
 62
     0
100
AcDbPoint
 10
1158.781550104293
 20
107.7072251573842
 30
0.0
  0
POINT
  5
7CB7
330
7CA9
100
AcDbEntity
  8
DEFPOINTS
 62
     0
100
AcDbPoint
 10
1159.173296327051
 20
107.9712979703644
 30
0.0
  0
ENDBLK
  5
7CAB
330
7CA9
100
AcDbEntity
  8
0
100
AcDbBlockEnd
  0
BLOCK
  5
7CBA
330
7CB9
100
AcDbEntity
  8
0
100
AcDbBlockBegin
  2
*D318
 70
     1
 10
0.0
 20
0.0
 30
0.0
  3
*D318
  1

  0
LINE
  5
7CBC
330
7CB9
100
AcDbEntity
  8
标注
370
    -2
100
AcDbLine
 10
1158.779871917056
 20
136.6722057972147
 30
0.0
 11
1158.779871917056
 21
133.6544309879646
 31
0.0
  0
LINE
  5
7CBD
330
7CB9
100
AcDbEntity
  8
标注
370
    -2
100
AcDbLine
 10
1188.779260737038
 20
136.6722057972147
 30
0.0
 11
1188.779260737038
 21
133.6544309879646
 31
0.0
  0
LINE
  5
7CBE
330
7CB9
100
AcDbEntity
  8
标注
370
    -2
100
AcDbLine
 10
1159.429871917056
 20
133.9744309879646
 30
0.0
 11
1172.853730719953
 21
133.9744309879646
 31
0.0
  0
LINE
  5
7CBF
330
7CB9
100
AcDbEntity
  8
标注
370
    -2
100
AcDbLine
 10
1188.129260737038
 20
133.9744309879646
 30
0.0
 11
1174.705401934141
 21
133.9744309879646
 31
0.0
  0
SOLID
  5
7CC0
330
7CB9
100
AcDbEntity
  8
标注
100
AcDbTrace
 10
1159.429871917056
 20
134.0827643212979
 30
0.0
 11
1159.429871917056
 21
133.8660976546313
 31
0.0
 12
1158.779871917056
 22
133.9744309879646
 32
0.0
 13
1158.779871917056
 23
133.9744309879646
 33
0.0
  0
SOLID
  5
7CC1
330
7CB9
100
AcDbEntity
  8
标注
100
AcDbTrace
 10
1188.129260737038
 20
134.0827643212979
 30
0.0
 11
1188.129260737038
 21
133.8660976546313
 31
0.0
 12
1188.779260737038
 22
133.9744309879646
 32
0.0
 13
1188.779260737038
 23
133.9744309879646
 33
0.0
  0
MTEXT
  5
7CC2
330
7CB9
100
AcDbEntity
  8
标注
100
AcDbMText
 10
1173.779566327047
 20
133.9744309879646
 30
0.0
 40
0.65
 41
0.0
 71
     5
 72
     1
  1
\A1;30"
 73
     1
 44
1.0
1001
ACAD
1000
MTEXTBEGIN
1070
    73
1070
     1
1070
    44
1040
1.0
1070
    74
1070
     0
1000
MTEXTEND
  0
POINT
  5
7CC3
330
7CB9
100
AcDbEntity
  8
DEFPOINTS
 62
     0
100
AcDbPoint
 10
1158.779871917056
 20
137.5522057972147
 30
0.0
  0
POINT
  5
7CC4
330
7CB9
100
AcDbEntity
  8
DEFPOINTS
 62
     0
100
AcDbPoint
 10
1188.779260737038
 20
137.5522057972147
 30
0.0
  0
POINT
  5
7CC5
330
7CB9
100
AcDbEntity
  8
DEFPOINTS
 62
     0
100
AcDbPoint
 10
1188.779260737038
 20
133.9744309879646
 30
0.0
  0
ENDBLK
  5
7CBB
330
7CB9
100
AcDbEntity
  8
0
100
AcDbBlockEnd
  0
BLOCK
  5
7CC8
330
7CC7
100
AcDbEntity
  8
0
100
AcDbBlockBegin
  2
*D319
 70
     1
 10
0.0
 20
0.0
 30
0.0
  3
*D319
  1

  0
LINE
  5
7CCA
330
7CC7
100
AcDbEntity
  8
标注
370
    -2
100
AcDbLine
 10
1157.780582577037
 20
136.1268236996693
 30
0.0
 11
1157.780582577037
 21
131.613538442364
 31
0.0
  0
LINE
  5
7CCB
330
7CC7
100
AcDbEntity
  8
标注
370
    -2
100
AcDbLine
 10
1189.778550077043
 20
136.1268236996693
 30
0.0
 11
1189.778550077043
 21
131.613538442364
 31
0.0
  0
LINE
  5
7CCC
330
7CC7
100
AcDbEntity
  8
标注
370
    -2
100
AcDbLine
 10
1158.430582577037
 20
131.933538442364
 30
0.0
 11
1172.853730719946
 21
131.933538442364
 31
0.0
  0
LINE
  5
7CCD
330
7CC7
100
AcDbEntity
  8
标注
370
    -2
100
AcDbLine
 10
1189.128550077043
 20
131.933538442364
 30
0.0
 11
1174.705401934134
 21
131.933538442364
 31
0.0
  0
SOLID
  5
7CCE
330
7CC7
100
AcDbEntity
  8
标注
100
AcDbTrace
 10
1158.430582577037
 20
132.0418717756973
 30
0.0
 11
1158.430582577037
 21
131.8252051090307
 31
0.0
 12
1157.780582577037
 22
131.933538442364
 32
0.0
 13
1157.780582577037
 23
131.933538442364
 33
0.0
  0
SOLID
  5
7CCF
330
7CC7
100
AcDbEntity
  8
标注
100
AcDbTrace
 10
1189.128550077043
 20
132.0418717756973
 30
0.0
 11
1189.128550077043
 21
131.8252051090307
 31
0.0
 12
1189.778550077043
 22
131.933538442364
 32
0.0
 13
1189.778550077043
 23
131.933538442364
 33
0.0
  0
MTEXT
  5
7CD0
330
7CC7
100
AcDbEntity
  8
标注
100
AcDbMText
 10
1173.77956632704
 20
131.933538442364
 30
0.0
 40
0.65
 41
0.0
 71
     5
 72
     1
  1
\A1;32"
 73
     1
 44
1.0
1001
ACAD
1000
MTEXTBEGIN
1070
    73
1070
     1
1070
    44
1040
1.0
1070
    74
1070
     0
1000
MTEXTEND
  0
POINT
  5
7CD1
330
7CC7
100
AcDbEntity
  8
DEFPOINTS
 62
     0
100
AcDbPoint
 10
1157.780582577037
 20
137.0068236996693
 30
0.0
  0
POINT
  5
7CD2
330
7CC7
100
AcDbEntity
  8
DEFPOINTS
 62
     0
100
AcDbPoint
 10
1189.778550077043
 20
137.0068236996693
 30
0.0
  0
POINT
  5
7CD3
330
7CC7
100
AcDbEntity
  8
DEFPOINTS
 62
     0
100
AcDbPoint
 10
1189.778550077043
 20
131.933538442364
 30
0.0
  0
ENDBLK
  5
7CC9
330
7CC7
100
AcDbEntity
  8
0
100
AcDbBlockEnd
  0
BLOCK
  5
7CD6
330
7CD5
100
AcDbEntity
  8
0
100
AcDbBlockBegin
  2
*D320
 70
     1
 10
0.0
 20
0.0
 30
0.0
  3
*D320
  1

  0
LINE
  5
7CD8
330
7CD5
100
AcDbEntity
  8
标注
370
    -2
100
AcDbLine
 10
1189.265560737038
 20
137.1585057972214
 30
0.0
 11
1191.871826955997
 21
137.1585057972214
 31
0.0
  0
LINE
  5
7CD9
330
7CD5
100
AcDbEntity
  8
标注
370
    -2
100
AcDbLine
 10
1189.265560737038
 20
153.1583163172202
 30
0.0
 11
1191.871826955997
 21
153.1583163172202
 31
0.0
  0
LINE
  5
7CDA
330
7CD5
100
AcDbEntity
  8
标注
370
    -2
100
AcDbLine
 10
1191.551826955998
 20
137.8085057972215
 30
0.0
 11
1191.551826955998
 21
144.2629472100175
 31
0.0
  0
LINE
  5
7CDB
330
7CD5
100
AcDbEntity
  8
标注
370
    -2
100
AcDbLine
 10
1191.551826955998
 20
152.5083163172202
 30
0.0
 11
1191.551826955998
 21
146.0538749044241
 31
0.0
  0
SOLID
  5
7CDC
330
7CD5
100
AcDbEntity
  8
标注
100
AcDbTrace
 10
1191.443493622664
 20
137.8085057972215
 30
0.0
 11
1191.660160289331
 21
137.8085057972215
 31
0.0
 12
1191.551826955998
 22
137.1585057972214
 32
0.0
 13
1191.551826955998
 23
137.1585057972214
 33
0.0
  0
SOLID
  5
7CDD
330
7CD5
100
AcDbEntity
  8
标注
100
AcDbTrace
 10
1191.443493622664
 20
152.5083163172202
 30
0.0
 11
1191.660160289331
 21
152.5083163172202
 31
0.0
 12
1191.551826955998
 22
153.1583163172202
 32
0.0
 13
1191.551826955998
 23
153.1583163172202
 33
0.0
  0
MTEXT
  5
7CDE
330
7CD5
100
AcDbEntity
  8
标注
100
AcDbMText
 10
1191.551826955998
 20
145.158411057221
 30
0.0
 40
0.65
 41
0.0
 71
     5
 72
     1
  1
\A1;16"
 11
0.0000000000000001
 21
1.0
 31
0.0
 73
     1
 44
1.0
1001
ACAD
1000
MTEXTBEGIN
1070
    73
1070
     1
1070
    44
1040
1.0
1070
    74
1070
     0
1000
MTEXTEND
  0
POINT
  5
7CDF
330
7CD5
100
AcDbEntity
  8
DEFPOINTS
 62
     0
100
AcDbPoint
 10
1188.385560737038
 20
137.1585057972214
 30
0.0
  0
POINT
  5
7CE0
330
7CD5
100
AcDbEntity
  8
DEFPOINTS
 62
     0
100
AcDbPoint
 10
1188.385560737038
 20
153.1583163172202
 30
0.0
  0
POINT
  5
7CE1
330
7CD5
100
AcDbEntity
  8
DEFPOINTS
 62
     0
100
AcDbPoint
 10
1191.551826955998
 20
153.1583163172202
 30
0.0
  0
ENDBLK
  5
7CD7
330
7CD5
100
AcDbEntity
  8
0
100
AcDbBlockEnd
  0
BLOCK
  5
7CE4
330
7CE3
100
AcDbEntity
  8
0
100
AcDbBlockBegin
  2
*D321
 70
     1
 10
0.0
 20
0.0
 30
0.0
  3
*D321
  1

  0
LINE
  5
7CE6
330
7CE3
100
AcDbEntity
  8
标注
370
    -2
100
AcDbLine
 10
1189.659260737038
 20
136.1584290572163
 30
0.0
 11
1193.783540359578
 21
136.1584290572163
 31
0.0
  0
LINE
  5
7CE7
330
7CE3
100
AcDbEntity
  8
标注
370
    -2
100
AcDbLine
 10
1189.659260737038
 20
154.1583930572186
 30
0.0
 11
1193.783540359578
 21
154.1583930572186
 31
0.0
  0
LINE
  5
7CE8
330
7CE3
100
AcDbEntity
  8
标注
370
    -2
100
AcDbLine
 10
1193.463540359579
 20
136.8084290572163
 30
0.0
 11
1193.463540359579
 21
144.2629472100142
 31
0.0
  0
LINE
  5
7CE9
330
7CE3
100
AcDbEntity
  8
标注
370
    -2
100
AcDbLine
 10
1193.463540359579
 20
153.5083930572186
 30
0.0
 11
1193.463540359579
 21
146.0538749044207
 31
0.0
  0
SOLID
  5
7CEA
330
7CE3
100
AcDbEntity
  8
标注
100
AcDbTrace
 10
1193.355207026245
 20
136.8084290572163
 30
0.0
 11
1193.571873692912
 21
136.8084290572163
 31
0.0
 12
1193.463540359579
 22
136.1584290572163
 32
0.0
 13
1193.463540359579
 23
136.1584290572163
 33
0.0
  0
SOLID
  5
7CEB
330
7CE3
100
AcDbEntity
  8
标注
100
AcDbTrace
 10
1193.355207026245
 20
153.5083930572186
 30
0.0
 11
1193.571873692912
 21
153.5083930572186
 31
0.0
 12
1193.463540359579
 22
154.1583930572186
 32
0.0
 13
1193.463540359579
 23
154.1583930572186
 33
0.0
  0
MTEXT
  5
7CEC
330
7CE3
100
AcDbEntity
  8
标注
100
AcDbMText
 10
1193.463540359579
 20
145.1584110572176
 30
0.0
 40
0.65
 41
0.0
 71
     5
 72
     1
  1
\A1;18"
 11
0.0000000000000001
 21
1.0
 31
0.0
 73
     1
 44
1.0
1001
ACAD
1000
MTEXTBEGIN
1070
    73
1070
     1
1070
    44
1040
1.0
1070
    74
1070
     0
1000
MTEXTEND
  0
POINT
  5
7CED
330
7CE3
100
AcDbEntity
  8
DEFPOINTS
 62
     0
100
AcDbPoint
 10
1188.779260737038
 20
136.1584290572163
 30
0.0
  0
POINT
  5
7CEE
330
7CE3
100
AcDbEntity
  8
DEFPOINTS
 62
     0
100
AcDbPoint
 10
1188.779260737038
 20
154.1583930572186
 30
0.0
  0
POINT
  5
7CEF
330
7CE3
100
AcDbEntity
  8
DEFPOINTS
 62
     0
100
AcDbPoint
 10
1193.463540359579
 20
154.1583930572186
 30
0.0
  0
ENDBLK
  5
7CE5
330
7CE3
100
AcDbEntity
  8
0
100
AcDbBlockEnd
  0
BLOCK
  5
7CF2
330
7CF1
100
AcDbEntity
  8
0
100
AcDbBlockBegin
  2
*D322
 70
     1
 10
0.0
 20
0.0
 30
0.0
  3
*D322
  1

  0
LINE
  5
7CF4
330
7CF1
100
AcDbEntity
  8
标注
370
    -2
100
AcDbLine
 10
1190.658550077043
 20
178.3260017809824
 30
0.0
 11
1192.665989401725
 21
178.3260017809824
 31
0.0
  0
LINE
  5
7CF5
330
7CF1
100
AcDbEntity
  8
标注
370
    -2
100
AcDbLine
 10
1190.658550077043
 20
168.3260017809824
 30
0.0
 11
1192.665989401725
 21
168.3260017809824
 31
0.0
  0
LINE
  5
7CF6
330
7CF1
100
AcDbEntity
  8
标注
370
    -2
100
AcDbLine
 10
1192.345989401725
 20
177.6760017809824
 30
0.0
 11
1192.345989401725
 21
174.2214656281857
 31
0.0
  0
LINE
  5
7CF7
330
7CF1
100
AcDbEntity
  8
标注
370
    -2
100
AcDbLine
 10
1192.345989401725
 20
168.9760017809824
 30
0.0
 11
1192.345989401725
 21
172.4305379337791
 31
0.0
  0
SOLID
  5
7CF8
330
7CF1
100
AcDbEntity
  8
标注
100
AcDbTrace
 10
1192.237656068392
 20
177.6760017809824
 30
0.0
 11
1192.454322735058
 21
177.6760017809824
 31
0.0
 12
1192.345989401725
 22
178.3260017809824
 32
0.0
 13
1192.345989401725
 23
178.3260017809824
 33
0.0
  0
SOLID
  5
7CF9
330
7CF1
100
AcDbEntity
  8
标注
100
AcDbTrace
 10
1192.237656068392
 20
168.9760017809824
 30
0.0
 11
1192.454322735058
 21
168.9760017809824
 31
0.0
 12
1192.345989401725
 22
168.3260017809824
 32
0.0
 13
1192.345989401725
 23
168.3260017809824
 33
0.0
  0
MTEXT
  5
7CFA
330
7CF1
100
AcDbEntity
  8
标注
100
AcDbMText
 10
1192.345989401725
 20
173.3260017809826
 30
0.0
 40
0.65
 41
0.0
 71
     5
 72
     1
  1
\A1;10"
 11
0.0000000000000001
 21
1.0
 31
0.0
 73
     1
 44
1.0
1001
ACAD
1000
MTEXTBEGIN
1070
    73
1070
     1
1070
    44
1040
1.0
1070
    74
1070
     0
1000
MTEXTEND
  0
POINT
  5
7CFB
330
7CF1
100
AcDbEntity
  8
DEFPOINTS
 62
     0
100
AcDbPoint
 10
1189.778550077043
 20
178.3260017809824
 30
0.0
  0
POINT
  5
7CFC
330
7CF1
100
AcDbEntity
  8
DEFPOINTS
 62
     0
100
AcDbPoint
 10
1189.778550077043
 20
168.3260017809824
 30
0.0
  0
POINT
  5
7CFD
330
7CF1
100
AcDbEntity
  8
DEFPOINTS
 62
     0
100
AcDbPoint
 10
1192.345989401725
 20
168.3260017809824
 30
0.0
  0
ENDBLK
  5
7CF3
330
7CF1
100
AcDbEntity
  8
0
100
AcDbBlockEnd
  0
BLOCK
  5
7D00
330
7CFF
100
AcDbEntity
  8
0
100
AcDbBlockBegin
  2
*D323
 70
     1
 10
0.0
 20
0.0
 30
0.0
  3
*D323
  1

  0
LINE
  5
7D08
330
7CFF
100
AcDbEntity
  8
标注
370
    -2
100
AcDbLine
 10
1158.439654782125
 20
153.5066913330212
 30
0.0
 11
1157.982582694652
 21
153.9688440208344
 31
0.0
  0
MTEXT
  5
7D09
330
7CFF
100
AcDbEntity
  8
标注
100
AcDbMText
 10
1157.970201222599
 20
154.9044817703707
 30
0.0
 40
0.65
 41
0.0
 71
     5
 72
     1
  1
\A1;4-R3/8"
 11
0.7031878268817781
 21
-0.7110041350971757
 31
0.0
 73
     1
 44
1.0
1001
ACAD
1000
MTEXTBEGIN
1070
    73
1070
     1
1070
    44
1040
1.0
1070
    74
1070
     0
1000
MTEXTEND
  0
LINE
  5
7D0A
330
7CFF
100
AcDbEntity
  8
标注
370
    -2
100
AcDbLine
 10
1159.173571917042
 20
152.7646163172202
 30
0.0
 11
1158.896726869599
 21
153.0445386452081
 31
0.0
  0
SOLID
  5
7D0B
330
7CFF
100
AcDbEntity
  8
标注
100
AcDbTrace
 10
1158.516680230094
 20
153.5828700142668
 30
0.0
 11
1158.362629334156
 21
153.4305126517757
 31
0.0
 12
1158.896726869599
 22
153.0445386452081
 32
0.0
 13
1158.896726869599
 23
153.0445386452081
 33
0.0
  0
POINT
  5
7D0C
330
7CFF
100
AcDbEntity
  8
DEFPOINTS
 62
     0
100
AcDbPoint
 10
1158.896726869599
 20
153.0445386452081
 30
0.0
  0
POINT
  5
7D0D
330
7CFF
100
AcDbEntity
  8
DEFPOINTS
 62
     0
100
AcDbPoint
 10
1159.173571917042
 20
152.7646163172202
 30
0.0
  0
ENDBLK
  5
7D01
330
7CFF
100
AcDbEntity
  8
0
100
AcDbBlockEnd
  0
BLOCK
  5
7D10
330
7D0F
100
AcDbEntity
  8
0
100
AcDbBlockBegin
  2
*D324
 70
     1
 10
0.0
 20
0.0
 30
0.0
  3
*D324
  1

  0
LINE
  5
7D12
330
7D0F
100
AcDbEntity
  8
标注
370
    -2
100
AcDbLine
 10
1158.306490727208
 20
168.1941222358644
 30
0.0
 11
1157.763543871414
 21
167.836758678989
 31
0.0
  0
MTEXT
  5
7D13
330
7D0F
100
AcDbEntity
  8
标注
100
AcDbMText
 10
1159.844581208625
 20
169.7808916533022
 30
0.0
 40
0.65
 41
0.0
 71
     5
 72
     1
  1
\A1;R3/8"
 11
0.8353028550686579
 21
0.5497900875008104
 31
0.0
 73
     1
 44
1.0
1001
ACAD
1000
MTEXTBEGIN
1070
    73
1070
     1
1070
    44
1040
1.0
1070
    74
1070
     0
1000
MTEXTEND
  0
LINE
  5
7D14
330
7D0F
100
AcDbEntity
  8
标注
370
    -2
100
AcDbLine
 10
1159.178296317044
 20
168.7679381501892
 30
0.0
 11
1158.849437583003
 21
168.55148579274
 31
0.0
  0
SOLID
  5
7D15
330
7D0F
100
AcDbEntity
  8
标注
100
AcDbTrace
 10
1158.246930134396
 20
168.2846133784969
 30
0.0
 11
1158.366051320021
 21
168.1036310932319
 31
0.0
 12
1158.849437583003
 22
168.55148579274
 32
0.0
 13
1158.849437583003
 23
168.55148579274
 33
0.0
  0
POINT
  5
7D16
330
7D0F
100
AcDbEntity
  8
DEFPOINTS
 62
     0
100
AcDbPoint
 10
1158.849437583003
 20
168.55148579274
 30
0.0
  0
POINT
  5
7D17
330
7D0F
100
AcDbEntity
  8
DEFPOINTS
 62
     0
100
AcDbPoint
 10
1159.178296317044
 20
168.7679381501892
 30
0.0
  0
ENDBLK
  5
7D11
330
7D0F
100
AcDbEntity
  8
0
100
AcDbBlockEnd
  0
BLOCK
  5
7E39
330
7E38
100
AcDbEntity
  8
0
100
AcDbBlockBegin
  2
*D327
 70
     1
 10
0.0
 20
0.0
 30
0.0
  3
*D327
  1

  0
LINE
  5
7EB9
330
7E38
100
AcDbEntity
  8
标注
370
    -2
100
AcDbLine
 10
1170.312290684851
 20
137.0178489145513
 30
0.0
 11
1170.312290684851
 21
133.8214489846745
 31
0.0
  0
LINE
  5
7EBA
330
7E38
100
AcDbEntity
  8
标注
370
    -2
100
AcDbLine
 10
1204.312222684849
 20
137.0178489145513
 30
0.0
 11
1204.312222684849
 21
133.8214489846745
 31
0.0
  0
LINE
  5
7EBB
330
7E38
100
AcDbEntity
  8
标注
370
    -2
100
AcDbLine
 10
1170.962290684851
 20
134.1414489846745
 30
0.0
 11
1186.386421077755
 21
134.1414489846745
 31
0.0
  0
LINE
  5
7EBC
330
7E38
100
AcDbEntity
  8
标注
370
    -2
100
AcDbLine
 10
1203.662222684849
 20
134.1414489846745
 30
0.0
 11
1188.238092291943
 21
134.1414489846745
 31
0.0
  0
SOLID
  5
7EBD
330
7E38
100
AcDbEntity
  8
标注
100
AcDbTrace
 10
1170.962290684851
 20
134.2497823180078
 30
0.0
 11
1170.962290684851
 21
134.0331156513412
 31
0.0
 12
1170.312290684851
 22
134.1414489846745
 32
0.0
 13
1170.312290684851
 23
134.1414489846745
 33
0.0
  0
SOLID
  5
7EBE
330
7E38
100
AcDbEntity
  8
标注
100
AcDbTrace
 10
1203.662222684849
 20
134.2497823180078
 30
0.0
 11
1203.662222684849
 21
134.0331156513412
 31
0.0
 12
1204.312222684849
 22
134.1414489846745
 32
0.0
 13
1204.312222684849
 23
134.1414489846745
 33
0.0
  0
MTEXT
  5
7EBF
330
7E38
100
AcDbEntity
  8
标注
100
AcDbMText
 10
1187.312256684849
 20
134.1414489846745
 30
0.0
 40
0.65
 41
0.0
 71
     5
 72
     1
  1
\A1;34"
 73
     1
 44
1.0
1001
ACAD
1000
MTEXTBEGIN
1070
    73
1070
     1
1070
    44
1040
1.0
1070
    74
1070
     0
1000
MTEXTEND
  0
POINT
  5
7EC0
330
7E38
100
AcDbEntity
  8
DEFPOINTS
 62
     0
100
AcDbPoint
 10
1170.312290684851
 20
137.8978489145513
 30
0.0
  0
POINT
  5
7EC1
330
7E38
100
AcDbEntity
  8
DEFPOINTS
 62
     0
100
AcDbPoint
 10
1204.312222684849
 20
137.8978489145513
 30
0.0
  0
POINT
  5
7EC2
330
7E38
100
AcDbEntity
  8
DEFPOINTS
 62
     0
100
AcDbPoint
 10
1204.312222684849
 20
134.1414489846745
 30
0.0
  0
ENDBLK
  5
7E3A
330
7E38
100
AcDbEntity
  8
0
100
AcDbBlockEnd
  0
BLOCK
  5
7E47
330
7E46
100
AcDbEntity
  8
0
100
AcDbBlockBegin
  2
*D328
 70
     1
 10
0.0
 20
0.0
 30
0.0
  3
*D328
  1

  0
LINE
  5
7EC3
330
7E46
100
AcDbEntity
  8
标注
370
    -2
100
AcDbLine
 10
1169.312292684851
 20
136.4717250904544
 30
0.0
 11
1169.312292684851
 21
132.1932890118998
 31
0.0
  0
LINE
  5
7EC4
330
7E46
100
AcDbEntity
  8
标注
370
    -2
100
AcDbLine
 10
1205.312220684848
 20
136.4717250904544
 30
0.0
 11
1205.312220684848
 21
132.1932890118998
 31
0.0
  0
LINE
  5
7EC5
330
7E46
100
AcDbEntity
  8
标注
370
    -2
100
AcDbLine
 10
1169.962292684851
 20
132.5132890118998
 30
0.0
 11
1186.386421077755
 21
132.5132890118998
 31
0.0
  0
LINE
  5
7EC6
330
7E46
100
AcDbEntity
  8
标注
370
    -2
100
AcDbLine
 10
1204.662220684848
 20
132.5132890118998
 30
0.0
 11
1188.238092291943
 21
132.5132890118998
 31
0.0
  0
SOLID
  5
7EC7
330
7E46
100
AcDbEntity
  8
标注
100
AcDbTrace
 10
1169.962292684851
 20
132.6216223452331
 30
0.0
 11
1169.962292684851
 21
132.4049556785665
 31
0.0
 12
1169.312292684851
 22
132.5132890118998
 32
0.0
 13
1169.312292684851
 23
132.5132890118998
 33
0.0
  0
SOLID
  5
7EC8
330
7E46
100
AcDbEntity
  8
标注
100
AcDbTrace
 10
1204.662220684848
 20
132.6216223452331
 30
0.0
 11
1204.662220684848
 21
132.4049556785665
 31
0.0
 12
1205.312220684848
 22
132.5132890118998
 32
0.0
 13
1205.312220684848
 23
132.5132890118998
 33
0.0
  0
MTEXT
  5
7EC9
330
7E46
100
AcDbEntity
  8
标注
100
AcDbMText
 10
1187.312256684849
 20
132.5132890118998
 30
0.0
 40
0.65
 41
0.0
 71
     5
 72
     1
  1
\A1;36"
 73
     1
 44
1.0
1001
ACAD
1000
MTEXTBEGIN
1070
    73
1070
     1
1070
    44
1040
1.0
1070
    74
1070
     0
1000
MTEXTEND
  0
POINT
  5
7ECA
330
7E46
100
AcDbEntity
  8
DEFPOINTS
 62
     0
100
AcDbPoint
 10
1169.312292684851
 20
137.3517250904544
 30
0.0
  0
POINT
  5
7ECB
330
7E46
100
AcDbEntity
  8
DEFPOINTS
 62
     0
100
AcDbPoint
 10
1205.312220684848
 20
137.3517250904544
 30
0.0
  0
POINT
  5
7ECC
330
7E46
100
AcDbEntity
  8
DEFPOINTS
 62
     0
100
AcDbPoint
 10
1205.312220684848
 20
132.5132890118998
 30
0.0
  0
ENDBLK
  5
7E48
330
7E46
100
AcDbEntity
  8
0
100
AcDbBlockEnd
  0
BLOCK
  5
7E55
330
7E54
100
AcDbEntity
  8
0
100
AcDbBlockBegin
  2
*D329
 70
     1
 10
0.0
 20
0.0
 30
0.0
  3
*D329
  1

  0
LINE
  5
7ECD
330
7E54
100
AcDbEntity
  8
标注
370
    -2
100
AcDbLine
 10
1204.798522684848
 20
137.5041489145508
 30
0.0
 11
1207.451875171078
 21
137.5041489145508
 31
0.0
  0
LINE
  5
7ECE
330
7E54
100
AcDbEntity
  8
标注
370
    -2
100
AcDbLine
 10
1204.798522684848
 20
154.5041149145533
 30
0.0
 11
1207.451875171078
 21
154.5041149145533
 31
0.0
  0
LINE
  5
7ECF
330
7E54
100
AcDbEntity
  8
标注
370
    -2
100
AcDbLine
 10
1207.131875171078
 20
138.1541489145508
 30
0.0
 11
1207.131875171078
 21
145.1086680673488
 31
0.0
  0
LINE
  5
7ED0
330
7E54
100
AcDbEntity
  8
标注
370
    -2
100
AcDbLine
 10
1207.131875171078
 20
153.8541149145533
 30
0.0
 11
1207.131875171078
 21
146.8995957617553
 31
0.0
  0
SOLID
  5
7ED1
330
7E54
100
AcDbEntity
  8
标注
100
AcDbTrace
 10
1207.023541837745
 20
138.1541489145508
 30
0.0
 11
1207.240208504411
 21
138.1541489145508
 31
0.0
 12
1207.131875171078
 22
137.5041489145508
 32
0.0
 13
1207.131875171078
 23
137.5041489145508
 33
0.0
  0
SOLID
  5
7ED2
330
7E54
100
AcDbEntity
  8
标注
100
AcDbTrace
 10
1207.023541837745
 20
153.8541149145533
 30
0.0
 11
1207.240208504411
 21
153.8541149145533
 31
0.0
 12
1207.131875171078
 22
154.5041149145533
 32
0.0
 13
1207.131875171078
 23
154.5041149145533
 33
0.0
  0
MTEXT
  5
7ED3
330
7E54
100
AcDbEntity
  8
标注
100
AcDbMText
 10
1207.131875171078
 20
146.0041319145522
 30
0.0
 40
0.65
 41
0.0
 71
     5
 72
     1
  1
\A1;17"
 11
0.0000000000000001
 21
1.0
 31
0.0
 73
     1
 44
1.0
1001
ACAD
1000
MTEXTBEGIN
1070
    73
1070
     1
1070
    44
1040
1.0
1070
    74
1070
     0
1000
MTEXTEND
  0
POINT
  5
7ED4
330
7E54
100
AcDbEntity
  8
DEFPOINTS
 62
     0
100
AcDbPoint
 10
1203.918522684849
 20
137.5041489145508
 30
0.0
  0
POINT
  5
7ED5
330
7E54
100
AcDbEntity
  8
DEFPOINTS
 62
     0
100
AcDbPoint
 10
1203.918522684849
 20
154.5041149145533
 30
0.0
  0
POINT
  5
7ED6
330
7E54
100
AcDbEntity
  8
DEFPOINTS
 62
     0
100
AcDbPoint
 10
1207.131875171078
 20
154.5041149145533
 30
0.0
  0
ENDBLK
  5
7E56
330
7E54
100
AcDbEntity
  8
0
100
AcDbBlockEnd
  0
BLOCK
  5
7E63
330
7E62
100
AcDbEntity
  8
0
100
AcDbBlockBegin
  2
*D330
 70
     1
 10
0.0
 20
0.0
 30
0.0
  3
*D330
  1

  0
LINE
  5
7ED7
330
7E62
100
AcDbEntity
  8
标注
370
    -2
100
AcDbLine
 10
1205.192222684849
 20
136.5041509145515
 30
0.0
 11
1209.058744541955
 21
136.5041509145515
 31
0.0
  0
LINE
  5
7ED8
330
7E62
100
AcDbEntity
  8
标注
370
    -2
100
AcDbLine
 10
1205.192222684849
 20
155.5041129145531
 30
0.0
 11
1209.058744541955
 21
155.5041129145531
 31
0.0
  0
LINE
  5
7ED9
330
7E62
100
AcDbEntity
  8
标注
370
    -2
100
AcDbLine
 10
1208.738744541955
 20
137.1541509145514
 30
0.0
 11
1208.738744541955
 21
145.108668067349
 31
0.0
  0
LINE
  5
7EDA
330
7E62
100
AcDbEntity
  8
标注
370
    -2
100
AcDbLine
 10
1208.738744541955
 20
154.8541129145531
 30
0.0
 11
1208.738744541955
 21
146.8995957617556
 31
0.0
  0
SOLID
  5
7EDB
330
7E62
100
AcDbEntity
  8
标注
100
AcDbTrace
 10
1208.630411208621
 20
137.1541509145514
 30
0.0
 11
1208.847077875288
 21
137.1541509145514
 31
0.0
 12
1208.738744541955
 22
136.5041509145515
 32
0.0
 13
1208.738744541955
 23
136.5041509145515
 33
0.0
  0
SOLID
  5
7EDC
330
7E62
100
AcDbEntity
  8
标注
100
AcDbTrace
 10
1208.630411208621
 20
154.8541129145531
 30
0.0
 11
1208.847077875288
 21
154.8541129145531
 31
0.0
 12
1208.738744541955
 22
155.5041129145531
 32
0.0
 13
1208.738744541955
 23
155.5041129145531
 33
0.0
  0
MTEXT
  5
7EDD
330
7E62
100
AcDbEntity
  8
标注
100
AcDbMText
 10
1208.738744541955
 20
146.0041319145525
 30
0.0
 40
0.65
 41
0.0
 71
     5
 72
     1
  1
\A1;19"
 11
0.0000000000000001
 21
1.0
 31
0.0
 73
     1
 44
1.0
1001
ACAD
1000
MTEXTBEGIN
1070
    73
1070
     1
1070
    44
1040
1.0
1070
    74
1070
     0
1000
MTEXTEND
  0
POINT
  5
7EDE
330
7E62
100
AcDbEntity
  8
DEFPOINTS
 62
     0
100
AcDbPoint
 10
1204.312222684849
 20
136.5041509145515
 30
0.0
  0
POINT
  5
7EDF
330
7E62
100
AcDbEntity
  8
DEFPOINTS
 62
     0
100
AcDbPoint
 10
1204.312222684849
 20
155.5041129145531
 30
0.0
  0
POINT
  5
7EE0
330
7E62
100
AcDbEntity
  8
DEFPOINTS
 62
     0
100
AcDbPoint
 10
1208.738744541955
 20
155.5041129145531
 30
0.0
  0
ENDBLK
  5
7E64
330
7E62
100
AcDbEntity
  8
0
100
AcDbBlockEnd
  0
BLOCK
  5
7E71
330
7E70
100
AcDbEntity
  8
0
100
AcDbBlockBegin
  2
*D331
 70
     1
 10
0.0
 20
0.0
 30
0.0
  3
*D331
  1

  0
LINE
  5
7EE1
330
7E70
100
AcDbEntity
  8
标注
370
    -2
100
AcDbLine
 10
1170.233550684853
 20
103.1400952535663
 30
0.0
 11
1170.233550684853
 21
101.028849140637
 31
0.0
  0
LINE
  5
7EE2
330
7E70
100
AcDbEntity
  8
标注
370
    -2
100
AcDbLine
 10
1204.390962684853
 20
103.1400952535663
 30
0.0
 11
1204.390962684853
 21
101.028849140637
 31
0.0
  0
LINE
  5
7EE3
330
7E70
100
AcDbEntity
  8
标注
370
    -2
100
AcDbLine
 10
1170.883550684853
 20
101.3488491406369
 30
0.0
 11
1185.62912230559
 21
101.3488491406369
 31
0.0
  0
LINE
  5
7EE4
330
7E70
100
AcDbEntity
  8
标注
370
    -2
100
AcDbLine
 10
1203.740962684853
 20
101.3488491406369
 30
0.0
 11
1188.995391064116
 21
101.3488491406369
 31
0.0
  0
SOLID
  5
7EE5
330
7E70
100
AcDbEntity
  8
标注
100
AcDbTrace
 10
1170.883550684853
 20
101.4571824739703
 30
0.0
 11
1170.883550684853
 21
101.2405158073036
 31
0.0
 12
1170.233550684853
 22
101.3488491406369
 32
0.0
 13
1170.233550684853
 23
101.3488491406369
 33
0.0
  0
SOLID
  5
7EE6
330
7E70
100
AcDbEntity
  8
标注
100
AcDbTrace
 10
1203.740962684853
 20
101.4571824739703
 30
0.0
 11
1203.740962684853
 21
101.2405158073036
 31
0.0
 12
1204.390962684853
 22
101.3488491406369
 32
0.0
 13
1204.390962684853
 23
101.3488491406369
 33
0.0
  0
MTEXT
  5
7EE7
330
7E70
100
AcDbEntity
  8
标注
100
AcDbMText
 10
1187.312256684853
 20
101.3488491406369
 30
0.0
 40
0.65
 41
0.0
 71
     5
 72
     1
  1
\A1;34 1/8"
 73
     1
 44
1.0
1001
ACAD
1000
MTEXTBEGIN
1070
    73
1070
     1
1070
    44
1040
1.0
1070
    74
1070
     0
1000
MTEXTEND
  0
POINT
  5
7EE8
330
7E70
100
AcDbEntity
  8
DEFPOINTS
 62
     0
100
AcDbPoint
 10
1170.233550684853
 20
104.0200952535663
 30
0.0
  0
POINT
  5
7EE9
330
7E70
100
AcDbEntity
  8
DEFPOINTS
 62
     0
100
AcDbPoint
 10
1204.390962684853
 20
104.0200952535663
 30
0.0
  0
POINT
  5
7EEA
330
7E70
100
AcDbEntity
  8
DEFPOINTS
 62
     0
100
AcDbPoint
 10
1204.390962684853
 20
101.3488491406369
 30
0.0
  0
ENDBLK
  5
7E72
330
7E70
100
AcDbEntity
  8
0
100
AcDbBlockEnd
  0
BLOCK
  5
7E7F
330
7E7E
100
AcDbEntity
  8
0
100
AcDbBlockBegin
  2
*D332
 70
     1
 10
0.0
 20
0.0
 30
0.0
  3
*D332
  1

  0
LINE
  5
7EEB
330
7E7E
100
AcDbEntity
  8
标注
370
    -2
100
AcDbLine
 10
1204.798522684848
 20
103.5476552535685
 30
0.0
 11
1206.726900516661
 21
103.5476552535685
 31
0.0
  0
LINE
  5
7EEC
330
7E7E
100
AcDbEntity
  8
标注
370
    -2
100
AcDbLine
 10
1204.798522684848
 20
120.705101253566
 30
0.0
 11
1206.726900516661
 21
120.705101253566
 31
0.0
  0
LINE
  5
7EED
330
7E7E
100
AcDbEntity
  8
标注
370
    -2
100
AcDbLine
 10
1206.406900516661
 20
104.1976552535686
 30
0.0
 11
1206.406900516661
 21
110.4736156341948
 31
0.0
  0
LINE
  5
7EEE
330
7E7E
100
AcDbEntity
  8
标注
370
    -2
100
AcDbLine
 10
1206.406900516661
 20
120.055101253566
 30
0.0
 11
1206.406900516661
 21
113.7791408729397
 31
0.0
  0
SOLID
  5
7EEF
330
7E7E
100
AcDbEntity
  8
标注
100
AcDbTrace
 10
1206.298567183328
 20
104.1976552535686
 30
0.0
 11
1206.515233849994
 21
104.1976552535686
 31
0.0
 12
1206.406900516661
 22
103.5476552535685
 32
0.0
 13
1206.406900516661
 23
103.5476552535685
 33
0.0
  0
SOLID
  5
7EF0
330
7E7E
100
AcDbEntity
  8
标注
100
AcDbTrace
 10
1206.298567183328
 20
120.055101253566
 30
0.0
 11
1206.515233849994
 21
120.055101253566
 31
0.0
 12
1206.406900516661
 22
120.705101253566
 32
0.0
 13
1206.406900516661
 23
120.705101253566
 33
0.0
  0
MTEXT
  5
7EF1
330
7E7E
100
AcDbEntity
  8
标注
100
AcDbMText
 10
1206.406900516661
 20
112.1263782535675
 30
0.0
 40
0.65
 41
0.0
 71
     5
 72
     1
  1
\A1;17 1/8"
 11
0.0000000000000001
 21
1.0
 31
0.0
 73
     1
 44
1.0
1001
ACAD
1000
MTEXTBEGIN
1070
    73
1070
     1
1070
    44
1040
1.0
1070
    74
1070
     0
1000
MTEXTEND
  0
POINT
  5
7EF2
330
7E7E
100
AcDbEntity
  8
DEFPOINTS
 62
     0
100
AcDbPoint
 10
1203.918522684849
 20
103.5476552535685
 30
0.0
  0
POINT
  5
7EF3
330
7E7E
100
AcDbEntity
  8
DEFPOINTS
 62
     0
100
AcDbPoint
 10
1203.918522684849
 20
120.705101253566
 30
0.0
  0
POINT
  5
7EF4
330
7E7E
100
AcDbEntity
  8
DEFPOINTS
 62
     0
100
AcDbPoint
 10
1206.406900516661
 20
120.705101253566
 30
0.0
  0
ENDBLK
  5
7E80
330
7E7E
100
AcDbEntity
  8
0
100
AcDbBlockEnd
  0
BLOCK
  5
7E8D
330
7E8C
100
AcDbEntity
  8
0
100
AcDbBlockBegin
  2
*D333
 70
     1
 10
0.0
 20
0.0
 30
0.0
  3
*D333
  1

  0
LINE
  5
7EF5
330
7E8C
100
AcDbEntity
  8
标注
370
    -2
100
AcDbLine
 10
1169.880024289674
 20
103.2600616571777
 30
0.0
 11
1169.401710832504
 21
102.8199295898491
 31
0.0
  0
MTEXT
  5
7EF6
330
7E8C
100
AcDbEntity
  8
标注
100
AcDbMText
 10
1171.263278010352
 20
105.0533086978499
 30
0.0
 40
0.65
 41
0.0
 71
     5
 72
     1
  1
\A1;4-R1/2"
 11
0.7358668571831516
 21
0.6771262574286951
 31
0.0
 73
     1
 44
1.0
1001
ACAD
1000
MTEXTBEGIN
1070
    73
1070
     1
1070
    44
1040
1.0
1070
    74
1070
     0
1000
MTEXTEND
  0
LINE
  5
7EF7
330
7E8C
100
AcDbEntity
  8
标注
370
    -2
100
AcDbLine
 10
1170.705990684851
 20
104.0200952535662
 30
0.0
 11
1170.358337746843
 21
103.7001937245064
 31
0.0
  0
SOLID
  5
7EF8
330
7E8C
100
AcDbEntity
  8
标注
100
AcDbTrace
 10
1169.806668945119
 20
103.3397805667059
 30
0.0
 11
1169.953379634228
 21
103.1803427476495
 31
0.0
 12
1170.358337746843
 22
103.7001937245064
 32
0.0
 13
1170.358337746843
 23
103.7001937245064
 33
0.0
  0
POINT
  5
7EF9
330
7E8C
100
AcDbEntity
  8
DEFPOINTS
 62
     0
100
AcDbPoint
 10
1170.358337746843
 20
103.7001937245064
 30
0.0
  0
POINT
  5
7EFA
330
7E8C
100
AcDbEntity
  8
DEFPOINTS
 62
     0
100
AcDbPoint
 10
1170.705990684851
 20
104.0200952535662
 30
0.0
  0
ENDBLK
  5
7E8E
330
7E8C
100
AcDbEntity
  8
0
100
AcDbBlockEnd
  0
BLOCK
  5
7E9D
330
7E9C
100
AcDbEntity
  8
0
100
AcDbBlockBegin
  2
*D334
 70
     1
 10
0.0
 20
0.0
 30
0.0
  3
*D334
  1

  0
LINE
  5
7EFB
330
7E9C
100
AcDbEntity
  8
标注
370
    -2
100
AcDbLine
 10
1169.800822188547
 20
137.3782532224023
 30
0.0
 11
1169.237097437568
 21
137.0546571699959
 31
0.0
  0
MTEXT
  5
7EFC
330
7E9C
100
AcDbEntity
  8
标注
100
AcDbMText
 10
1171.44967419794
 20
138.9214806762392
 30
0.0
 40
0.65
 41
0.0
 71
     5
 72
     1
  1
\A1;4-R3/8"
 11
0.8672688476607525
 21
0.4978400806254861
 31
0.0
 73
     1
 44
1.0
1001
ACAD
1000
MTEXTBEGIN
1070
    73
1070
     1
1070
    44
1040
1.0
1070
    74
1070
     0
1000
MTEXTEND
  0
LINE
  5
7EFD
330
7E9C
100
AcDbEntity
  8
标注
370
    -2
100
AcDbLine
 10
1170.705990684851
 20
137.8978489145513
 30
0.0
 11
1170.364546939526
 21
137.701849274809
 31
0.0
  0
SOLID
  5
7EFE
330
7E9C
100
AcDbEntity
  8
标注
100
AcDbTrace
 10
1169.746889513146
 20
137.4722073475656
 30
0.0
 11
1169.854754863948
 21
137.2842990972391
 31
0.0
 12
1170.364546939526
 22
137.701849274809
 32
0.0
 13
1170.364546939526
 23
137.701849274809
 33
0.0
  0
POINT
  5
7EFF
330
7E9C
100
AcDbEntity
  8
DEFPOINTS
 62
     0
100
AcDbPoint
 10
1170.364546939526
 20
137.701849274809
 30
0.0
  0
POINT
  5
7F00
330
7E9C
100
AcDbEntity
  8
DEFPOINTS
 62
     0
100
AcDbPoint
 10
1170.705990684851
 20
137.8978489145513
 30
0.0
  0
ENDBLK
  5
7E9E
330
7E9C
100
AcDbEntity
  8
0
100
AcDbBlockEnd
  0
BLOCK
  5
7EAD
330
7EAC
100
AcDbEntity
  8
0
100
AcDbBlockBegin
  2
*D335
 70
     1
 10
0.0
 20
0.0
 30
0.0
  3
*D335
  1

  0
LINE
  5
7F01
330
7EAC
100
AcDbEntity
  8
标注
370
    -2
100
AcDbLine
 10
1206.192220684848
 20
177.8541538893471
 30
0.0
 11
1207.917505186906
 21
177.8541538893471
 31
0.0
  0
LINE
  5
7F02
330
7EAC
100
AcDbEntity
  8
标注
370
    -2
100
AcDbLine
 10
1206.192220684848
 20
167.8541538893471
 30
0.0
 11
1207.917505186906
 21
167.8541538893471
 31
0.0
  0
LINE
  5
7F03
330
7EAC
100
AcDbEntity
  8
标注
370
    -2
100
AcDbLine
 10
1207.597505186906
 20
177.2041538893471
 30
0.0
 11
1207.597505186906
 21
173.7496177365504
 31
0.0
  0
LINE
  5
7F04
330
7EAC
100
AcDbEntity
  8
标注
370
    -2
100
AcDbLine
 10
1207.597505186906
 20
168.5041538893471
 30
0.0
 11
1207.597505186906
 21
171.9586900421438
 31
0.0
  0
SOLID
  5
7F05
330
7EAC
100
AcDbEntity
  8
标注
100
AcDbTrace
 10
1207.489171853573
 20
177.2041538893471
 30
0.0
 11
1207.705838520239
 21
177.2041538893471
 31
0.0
 12
1207.597505186906
 22
177.8541538893471
 32
0.0
 13
1207.597505186906
 23
177.8541538893471
 33
0.0
  0
SOLID
  5
7F06
330
7EAC
100
AcDbEntity
  8
标注
100
AcDbTrace
 10
1207.489171853573
 20
168.5041538893471
 30
0.0
 11
1207.705838520239
 21
168.5041538893471
 31
0.0
 12
1207.597505186906
 22
167.8541538893471
 32
0.0
 13
1207.597505186906
 23
167.8541538893471
 33
0.0
  0
MTEXT
  5
7F07
330
7EAC
100
AcDbEntity
  8
标注
100
AcDbMText
 10
1207.597505186906
 20
172.8541538893473
 30
0.0
 40
0.65
 41
0.0
 71
     5
 72
     1
  1
\A1;10"
 11
0.0000000000000001
 21
1.0
 31
0.0
 73
     1
 44
1.0
1001
ACAD
1000
MTEXTBEGIN
1070
    73
1070
     1
1070
    44
1040
1.0
1070
    74
1070
     0
1000
MTEXTEND
  0
POINT
  5
7F08
330
7EAC
100
AcDbEntity
  8
DEFPOINTS
 62
     0
100
AcDbPoint
 10
1205.312220684848
 20
177.8541538893471
 30
0.0
  0
POINT
  5
7F09
330
7EAC
100
AcDbEntity
  8
DEFPOINTS
 62
     0
100
AcDbPoint
 10
1205.312220684848
 20
167.8541538893471
 30
0.0
  0
POINT
  5
7F0A
330
7EAC
100
AcDbEntity
  8
DEFPOINTS
 62
     0
100
AcDbPoint
 10
1207.597505186906
 20
167.8541538893471
 30
0.0
  0
ENDBLK
  5
7EAE
330
7EAC
100
AcDbEntity
  8
0
100
AcDbBlockEnd
  0
BLOCK
  5
7F48
330
7F47
100
AcDbEntity
  8
0
 48
5.0
100
AcDbBlockBegin
  2
_Oblique
 70
     0
 10
0.0
 20
0.0
 30
0.0
  3
_Oblique
  1

  0
LINE
  5
7F49
330
7F47
100
AcDbEntity
  8
0
  6
ByBlock
 62
     0
370
    -2
100
AcDbLine
 10
-0.5
 20
-0.5
 30
0.0
 11
0.5
 21
0.5
 31
0.0
  0
ENDBLK
  5
7F4A
330
7F47
100
AcDbEntity
  8
0
 48
5.0
100
AcDbBlockEnd
  0
BLOCK
  5
8009
330
8008
100
AcDbEntity
  8
0
100
AcDbBlockBegin
  2
*D338
 70
     1
 10
0.0
 20
0.0
 30
0.0
  3
*D338
  1

  0
LINE
  5
800B
330
8008
100
AcDbEntity
  8
标注
370
    -2
100
AcDbLine
 10
1230.722318897997
 20
106.1460650304292
 30
0.0
 11
1230.722318897997
 21
103.7648656788448
 31
0.0
  0
LINE
  5
800C
330
8008
100
AcDbEntity
  8
标注
370
    -2
100
AcDbLine
 10
1258.879742897989
 20
106.1460650304292
 30
0.0
 11
1258.879742897989
 21
103.7648656788448
 31
0.0
  0
LINE
  5
800D
330
8008
100
AcDbEntity
  8
标注
370
    -2
100
AcDbLine
 10
1231.372318897997
 20
104.0848656788448
 30
0.0
 11
1243.112132535101
 21
104.0848656788448
 31
0.0
  0
LINE
  5
800E
330
8008
100
AcDbEntity
  8
标注
370
    -2
100
AcDbLine
 10
1258.229742897989
 20
104.0848656788448
 30
0.0
 11
1246.489929260885
 21
104.0848656788448
 31
0.0
  0
SOLID
  5
800F
330
8008
100
AcDbEntity
  8
标注
100
AcDbTrace
 10
1231.372318897997
 20
104.1931990121781
 30
0.0
 11
1231.372318897997
 21
103.9765323455115
 31
0.0
 12
1230.722318897997
 22
104.0848656788448
 32
0.0
 13
1230.722318897997
 23
104.0848656788448
 33
0.0
  0
SOLID
  5
8010
330
8008
100
AcDbEntity
  8
标注
100
AcDbTrace
 10
1258.229742897989
 20
104.1931990121781
 30
0.0
 11
1258.229742897989
 21
103.9765323455115
 31
0.0
 12
1258.879742897989
 22
104.0848656788448
 32
0.0
 13
1258.879742897989
 23
104.0848656788448
 33
0.0
  0
MTEXT
  5
8011
330
8008
100
AcDbEntity
  8
标注
100
AcDbMText
 10
1244.801030897993
 20
104.0848656788448
 30
0.0
 40
0.65
 41
0.0
 71
     5
 72
     1
  1
\A1;28 1/8"
 73
     1
 44
1.0
1001
ACAD
1000
MTEXTBEGIN
1070
    73
1070
     1
1070
    44
1040
1.0
1070
    74
1070
     0
1000
MTEXTEND
  0
POINT
  5
8012
330
8008
100
AcDbEntity
  8
DEFPOINTS
 62
     0
100
AcDbPoint
 10
1230.722318897997
 20
107.0260650304292
 30
0.0
  0
POINT
  5
8013
330
8008
100
AcDbEntity
  8
DEFPOINTS
 62
     0
100
AcDbPoint
 10
1258.879742897989
 20
107.0260650304292
 30
0.0
  0
POINT
  5
8014
330
8008
100
AcDbEntity
  8
DEFPOINTS
 62
     0
100
AcDbPoint
 10
1258.879742897989
 20
104.0848656788448
 30
0.0
  0
ENDBLK
  5
800A
330
8008
100
AcDbEntity
  8
0
100
AcDbBlockEnd
  0
BLOCK
  5
8017
330
8016
100
AcDbEntity
  8
0
100
AcDbBlockBegin
  2
*D339
 70
     1
 10
0.0
 20
0.0
 30
0.0
  3
*D339
  1

  0
LINE
  5
8019
330
8016
100
AcDbEntity
  8
标注
370
    -2
100
AcDbLine
 10
1259.287302897989
 20
106.5536250304315
 30
0.0
 11
1261.617233772254
 21
106.5536250304315
 31
0.0
  0
LINE
  5
801A
330
8016
100
AcDbEntity
  8
标注
370
    -2
100
AcDbLine
 10
1259.287302897989
 20
122.7110730304296
 30
0.0
 11
1261.617233772254
 21
122.7110730304296
 31
0.0
  0
LINE
  5
801B
330
8016
100
AcDbEntity
  8
标注
370
    -2
100
AcDbLine
 10
1261.297233772254
 20
107.2036250304315
 30
0.0
 11
1261.297233772254
 21
112.9795864110581
 31
0.0
  0
LINE
  5
801C
330
8016
100
AcDbEntity
  8
标注
370
    -2
100
AcDbLine
 10
1261.297233772254
 20
122.0610730304296
 30
0.0
 11
1261.297233772254
 21
116.2851116498029
 31
0.0
  0
SOLID
  5
801D
330
8016
100
AcDbEntity
  8
标注
100
AcDbTrace
 10
1261.188900438921
 20
107.2036250304315
 30
0.0
 11
1261.405567105588
 21
107.2036250304315
 31
0.0
 12
1261.297233772254
 22
106.5536250304315
 32
0.0
 13
1261.297233772254
 23
106.5536250304315
 33
0.0
  0
SOLID
  5
801E
330
8016
100
AcDbEntity
  8
标注
100
AcDbTrace
 10
1261.188900438921
 20
122.0610730304296
 30
0.0
 11
1261.405567105588
 21
122.0610730304296
 31
0.0
 12
1261.297233772254
 22
122.7110730304296
 32
0.0
 13
1261.297233772254
 23
122.7110730304296
 33
0.0
  0
MTEXT
  5
801F
330
8016
100
AcDbEntity
  8
标注
100
AcDbMText
 10
1261.297233772254
 20
114.6323490304307
 30
0.0
 40
0.65
 41
0.0
 71
     5
 72
     1
  1
\A1;16 1/8"
 11
0.0000000000000001
 21
1.0
 31
0.0
 73
     1
 44
1.0
1001
ACAD
1000
MTEXTBEGIN
1070
    73
1070
     1
1070
    44
1040
1.0
1070
    74
1070
     0
1000
MTEXTEND
  0
POINT
  5
8020
330
8016
100
AcDbEntity
  8
DEFPOINTS
 62
     0
100
AcDbPoint
 10
1258.407302897989
 20
106.5536250304315
 30
0.0
  0
POINT
  5
8021
330
8016
100
AcDbEntity
  8
DEFPOINTS
 62
     0
100
AcDbPoint
 10
1258.407302897989
 20
122.7110730304296
 30
0.0
  0
POINT
  5
8022
330
8016
100
AcDbEntity
  8
DEFPOINTS
 62
     0
100
AcDbPoint
 10
1261.297233772254
 20
122.7110730304296
 30
0.0
  0
ENDBLK
  5
8018
330
8016
100
AcDbEntity
  8
0
100
AcDbBlockEnd
  0
BLOCK
  5
8025
330
8024
100
AcDbEntity
  8
0
100
AcDbBlockBegin
  2
*D340
 70
     1
 10
0.0
 20
0.0
 30
0.0
  3
*D340
  1

  0
LINE
  5
8027
330
8024
100
AcDbEntity
  8
标注
370
    -2
100
AcDbLine
 10
1230.801334487985
 20
136.9368273263648
 30
0.0
 11
1230.801334487985
 21
134.3183051679415
 31
0.0
  0
LINE
  5
8028
330
8024
100
AcDbEntity
  8
标注
370
    -2
100
AcDbLine
 10
1258.800727308013
 20
136.9368273263648
 30
0.0
 11
1258.800727308013
 21
134.3183051679415
 31
0.0
  0
LINE
  5
8029
330
8024
100
AcDbEntity
  8
标注
370
    -2
100
AcDbLine
 10
1231.451334487985
 20
134.6383051679415
 30
0.0
 11
1243.869431307276
 21
134.6383051679415
 31
0.0
  0
LINE
  5
802A
330
8024
100
AcDbEntity
  8
标注
370
    -2
100
AcDbLine
 10
1258.150727308013
 20
134.6383051679415
 30
0.0
 11
1245.732630488722
 21
134.6383051679415
 31
0.0
  0
SOLID
  5
802B
330
8024
100
AcDbEntity
  8
标注
100
AcDbTrace
 10
1231.451334487985
 20
134.7466385012749
 30
0.0
 11
1231.451334487985
 21
134.5299718346082
 31
0.0
 12
1230.801334487985
 22
134.6383051679415
 32
0.0
 13
1230.801334487985
 23
134.6383051679415
 33
0.0
  0
SOLID
  5
802C
330
8024
100
AcDbEntity
  8
标注
100
AcDbTrace
 10
1258.150727308013
 20
134.7466385012749
 30
0.0
 11
1258.150727308013
 21
134.5299718346082
 31
0.0
 12
1258.800727308013
 22
134.6383051679415
 32
0.0
 13
1258.800727308013
 23
134.6383051679415
 33
0.0
  0
MTEXT
  5
802D
330
8024
100
AcDbEntity
  8
标注
100
AcDbMText
 10
1244.801030897999
 20
134.6383051679415
 30
0.0
 40
0.65
 41
0.0
 71
     5
 72
     1
  1
\A1;28"
 73
     1
 44
1.0
1001
ACAD
1000
MTEXTBEGIN
1070
    73
1070
     1
1070
    44
1040
1.0
1070
    74
1070
     0
1000
MTEXTEND
  0
POINT
  5
802E
330
8024
100
AcDbEntity
  8
DEFPOINTS
 62
     0
100
AcDbPoint
 10
1230.801334487985
 20
137.8168273263647
 30
0.0
  0
POINT
  5
802F
330
8024
100
AcDbEntity
  8
DEFPOINTS
 62
     0
100
AcDbPoint
 10
1258.800727308013
 20
137.8168273263647
 30
0.0
  0
POINT
  5
8030
330
8024
100
AcDbEntity
  8
DEFPOINTS
 62
     0
100
AcDbPoint
 10
1258.800727308013
 20
134.6383051679415
 30
0.0
  0
ENDBLK
  5
8026
330
8024
100
AcDbEntity
  8
0
100
AcDbBlockEnd
  0
BLOCK
  5
8033
330
8032
100
AcDbEntity
  8
0
100
AcDbBlockBegin
  2
*D341
 70
     1
 10
0.0
 20
0.0
 30
0.0
  3
*D341
  1

  0
LINE
  5
8035
330
8032
100
AcDbEntity
  8
标注
370
    -2
100
AcDbLine
 10
1229.802045147995
 20
136.3906247622657
 30
0.0
 11
1229.802045147995
 21
132.5612276670285
 31
0.0
  0
LINE
  5
8036
330
8032
100
AcDbEntity
  8
标注
370
    -2
100
AcDbLine
 10
1259.800016648003
 20
136.3906247622657
 30
0.0
 11
1259.800016648003
 21
132.5612276670285
 31
0.0
  0
LINE
  5
8037
330
8032
100
AcDbEntity
  8
标注
370
    -2
100
AcDbLine
 10
1230.452045147995
 20
132.8812276670285
 30
0.0
 11
1243.875195290905
 21
132.8812276670285
 31
0.0
  0
LINE
  5
8038
330
8032
100
AcDbEntity
  8
标注
370
    -2
100
AcDbLine
 10
1259.150016648003
 20
132.8812276670285
 30
0.0
 11
1245.726866505093
 21
132.8812276670285
 31
0.0
  0
SOLID
  5
8039
330
8032
100
AcDbEntity
  8
标注
100
AcDbTrace
 10
1230.452045147995
 20
132.9895610003618
 30
0.0
 11
1230.452045147995
 21
132.7728943336952
 31
0.0
 12
1229.802045147995
 22
132.8812276670285
 32
0.0
 13
1229.802045147995
 23
132.8812276670285
 33
0.0
  0
SOLID
  5
803A
330
8032
100
AcDbEntity
  8
标注
100
AcDbTrace
 10
1259.150016648003
 20
132.9895610003618
 30
0.0
 11
1259.150016648003
 21
132.7728943336952
 31
0.0
 12
1259.800016648003
 22
132.8812276670285
 32
0.0
 13
1259.800016648003
 23
132.8812276670285
 33
0.0
  0
MTEXT
  5
803B
330
8032
100
AcDbEntity
  8
标注
100
AcDbMText
 10
1244.801030897999
 20
132.8812276670285
 30
0.0
 40
0.65
 41
0.0
 71
     5
 72
     1
  1
\A1;30"
 73
     1
 44
1.0
1001
ACAD
1000
MTEXTBEGIN
1070
    73
1070
     1
1070
    44
1040
1.0
1070
    74
1070
     0
1000
MTEXTEND
  0
POINT
  5
803C
330
8032
100
AcDbEntity
  8
DEFPOINTS
 62
     0
100
AcDbPoint
 10
1229.802045147995
 20
137.2706247622657
 30
0.0
  0
POINT
  5
803D
330
8032
100
AcDbEntity
  8
DEFPOINTS
 62
     0
100
AcDbPoint
 10
1259.800016648003
 20
137.2706247622657
 30
0.0
  0
POINT
  5
803E
330
8032
100
AcDbEntity
  8
DEFPOINTS
 62
     0
100
AcDbPoint
 10
1259.800016648003
 20
132.8812276670285
 30
0.0
  0
ENDBLK
  5
8034
330
8032
100
AcDbEntity
  8
0
100
AcDbBlockEnd
  0
BLOCK
  5
8041
330
8040
100
AcDbEntity
  8
0
100
AcDbBlockBegin
  2
*D342
 70
     1
 10
0.0
 20
0.0
 30
0.0
  3
*D342
  1

  0
LINE
  5
8043
330
8040
100
AcDbEntity
  8
标注
370
    -2
100
AcDbLine
 10
1259.287027307998
 20
137.4231273263642
 30
0.0
 11
1261.718576989374
 21
137.4231273263642
 31
0.0
  0
LINE
  5
8044
330
8040
100
AcDbEntity
  8
标注
370
    -2
100
AcDbLine
 10
1259.287027307998
 20
153.422937846363
 30
0.0
 11
1261.718576989374
 21
153.422937846363
 31
0.0
  0
LINE
  5
8045
330
8040
100
AcDbEntity
  8
标注
370
    -2
100
AcDbLine
 10
1261.398576989374
 20
138.0731273263642
 30
0.0
 11
1261.398576989374
 21
144.5275687391603
 31
0.0
  0
LINE
  5
8046
330
8040
100
AcDbEntity
  8
标注
370
    -2
100
AcDbLine
 10
1261.398576989374
 20
152.772937846363
 30
0.0
 11
1261.398576989374
 21
146.3184964335669
 31
0.0
  0
SOLID
  5
8047
330
8040
100
AcDbEntity
  8
标注
100
AcDbTrace
 10
1261.290243656041
 20
138.0731273263642
 30
0.0
 11
1261.506910322707
 21
138.0731273263642
 31
0.0
 12
1261.398576989374
 22
137.4231273263642
 32
0.0
 13
1261.398576989374
 23
137.4231273263642
 33
0.0
  0
SOLID
  5
8048
330
8040
100
AcDbEntity
  8
标注
100
AcDbTrace
 10
1261.290243656041
 20
152.772937846363
 30
0.0
 11
1261.506910322707
 21
152.772937846363
 31
0.0
 12
1261.398576989374
 22
153.422937846363
 32
0.0
 13
1261.398576989374
 23
153.422937846363
 33
0.0
  0
MTEXT
  5
8049
330
8040
100
AcDbEntity
  8
标注
100
AcDbMText
 10
1261.398576989374
 20
145.4230325863638
 30
0.0
 40
0.65
 41
0.0
 71
     5
 72
     1
  1
\A1;16"
 11
0.0000000000000001
 21
1.0
 31
0.0
 73
     1
 44
1.0
1001
ACAD
1000
MTEXTBEGIN
1070
    73
1070
     1
1070
    44
1040
1.0
1070
    74
1070
     0
1000
MTEXTEND
  0
POINT
  5
804A
330
8040
100
AcDbEntity
  8
DEFPOINTS
 62
     0
100
AcDbPoint
 10
1258.407027307998
 20
137.4231273263642
 30
0.0
  0
POINT
  5
804B
330
8040
100
AcDbEntity
  8
DEFPOINTS
 62
     0
100
AcDbPoint
 10
1258.407027307998
 20
153.422937846363
 30
0.0
  0
POINT
  5
804C
330
8040
100
AcDbEntity
  8
DEFPOINTS
 62
     0
100
AcDbPoint
 10
1261.398576989374
 20
153.422937846363
 30
0.0
  0
ENDBLK
  5
8042
330
8040
100
AcDbEntity
  8
0
100
AcDbBlockEnd
  0
BLOCK
  5
804F
330
804E
100
AcDbEntity
  8
0
100
AcDbBlockBegin
  2
*D343
 70
     1
 10
0.0
 20
0.0
 30
0.0
  3
*D343
  1

  0
LINE
  5
8051
330
804E
100
AcDbEntity
  8
标注
370
    -2
100
AcDbLine
 10
1259.680727308013
 20
136.4230505863663
 30
0.0
 11
1263.570691413144
 21
136.4230505863663
 31
0.0
  0
LINE
  5
8052
330
804E
100
AcDbEntity
  8
标注
370
    -2
100
AcDbLine
 10
1259.680727308013
 20
154.423014586365
 30
0.0
 11
1263.570691413144
 21
154.423014586365
 31
0.0
  0
LINE
  5
8053
330
804E
100
AcDbEntity
  8
标注
370
    -2
100
AcDbLine
 10
1263.250691413144
 20
137.0730505863663
 30
0.0
 11
1263.250691413144
 21
144.5275687391624
 31
0.0
  0
LINE
  5
8054
330
804E
100
AcDbEntity
  8
标注
370
    -2
100
AcDbLine
 10
1263.250691413144
 20
153.773014586365
 30
0.0
 11
1263.250691413144
 21
146.318496433569
 31
0.0
  0
SOLID
  5
8055
330
804E
100
AcDbEntity
  8
标注
100
AcDbTrace
 10
1263.142358079811
 20
137.0730505863663
 30
0.0
 11
1263.359024746477
 21
137.0730505863663
 31
0.0
 12
1263.250691413144
 22
136.4230505863663
 32
0.0
 13
1263.250691413144
 23
136.4230505863663
 33
0.0
  0
SOLID
  5
8056
330
804E
100
AcDbEntity
  8
标注
100
AcDbTrace
 10
1263.142358079811
 20
153.773014586365
 30
0.0
 11
1263.359024746477
 21
153.773014586365
 31
0.0
 12
1263.250691413144
 22
154.423014586365
 32
0.0
 13
1263.250691413144
 23
154.423014586365
 33
0.0
  0
MTEXT
  5
8057
330
804E
100
AcDbEntity
  8
标注
100
AcDbMText
 10
1263.250691413144
 20
145.4230325863659
 30
0.0
 40
0.65
 41
0.0
 71
     5
 72
     1
  1
\A1;18"
 11
0.0000000000000001
 21
1.0
 31
0.0
 73
     1
 44
1.0
1001
ACAD
1000
MTEXTBEGIN
1070
    73
1070
     1
1070
    44
1040
1.0
1070
    74
1070
     0
1000
MTEXTEND
  0
POINT
  5
8058
330
804E
100
AcDbEntity
  8
DEFPOINTS
 62
     0
100
AcDbPoint
 10
1258.800727308013
 20
136.4230505863663
 30
0.0
  0
POINT
  5
8059
330
804E
100
AcDbEntity
  8
DEFPOINTS
 62
     0
100
AcDbPoint
 10
1258.800727308013
 20
154.423014586365
 30
0.0
  0
POINT
  5
805A
330
804E
100
AcDbEntity
  8
DEFPOINTS
 62
     0
100
AcDbPoint
 10
1263.250691413144
 20
154.423014586365
 30
0.0
  0
ENDBLK
  5
8050
330
804E
100
AcDbEntity
  8
0
100
AcDbBlockEnd
  0
BLOCK
  5
805D
330
805C
100
AcDbEntity
  8
0
100
AcDbBlockBegin
  2
*D344
 70
     1
 10
0.0
 20
0.0
 30
0.0
  3
*D344
  1

  0
LINE
  5
805F
330
805C
100
AcDbEntity
  8
标注
370
    -2
100
AcDbLine
 10
1260.680016648003
 20
176.5327272833246
 30
0.0
 11
1262.446949403641
 21
176.5327272833246
 31
0.0
  0
LINE
  5
8060
330
805C
100
AcDbEntity
  8
标注
370
    -2
100
AcDbLine
 10
1260.680016648003
 20
166.5327272833247
 30
0.0
 11
1262.446949403641
 21
166.5327272833247
 31
0.0
  0
LINE
  5
8061
330
805C
100
AcDbEntity
  8
标注
370
    -2
100
AcDbLine
 10
1262.126949403641
 20
175.8827272833246
 30
0.0
 11
1262.126949403641
 21
172.4281911305279
 31
0.0
  0
LINE
  5
8062
330
805C
100
AcDbEntity
  8
标注
370
    -2
100
AcDbLine
 10
1262.126949403641
 20
167.1827272833247
 30
0.0
 11
1262.126949403641
 21
170.6372634361214
 31
0.0
  0
SOLID
  5
8063
330
805C
100
AcDbEntity
  8
标注
100
AcDbTrace
 10
1262.018616070308
 20
175.8827272833246
 30
0.0
 11
1262.235282736975
 21
175.8827272833246
 31
0.0
 12
1262.126949403641
 22
176.5327272833246
 32
0.0
 13
1262.126949403641
 23
176.5327272833246
 33
0.0
  0
SOLID
  5
8064
330
805C
100
AcDbEntity
  8
标注
100
AcDbTrace
 10
1262.018616070308
 20
167.1827272833247
 30
0.0
 11
1262.235282736975
 21
167.1827272833247
 31
0.0
 12
1262.126949403641
 22
166.5327272833247
 32
0.0
 13
1262.126949403641
 23
166.5327272833247
 33
0.0
  0
MTEXT
  5
8065
330
805C
100
AcDbEntity
  8
标注
100
AcDbMText
 10
1262.126949403641
 20
171.5327272833248
 30
0.0
 40
0.65
 41
0.0
 71
     5
 72
     1
  1
\A1;10"
 11
0.0000000000000001
 21
1.0
 31
0.0
 73
     1
 44
1.0
1001
ACAD
1000
MTEXTBEGIN
1070
    73
1070
     1
1070
    44
1040
1.0
1070
    74
1070
     0
1000
MTEXTEND
  0
POINT
  5
8066
330
805C
100
AcDbEntity
  8
DEFPOINTS
 62
     0
100
AcDbPoint
 10
1259.800016648003
 20
176.5327272833246
 30
0.0
  0
POINT
  5
8067
330
805C
100
AcDbEntity
  8
DEFPOINTS
 62
     0
100
AcDbPoint
 10
1259.800016648003
 20
166.5327272833247
 30
0.0
  0
POINT
  5
8068
330
805C
100
AcDbEntity
  8
DEFPOINTS
 62
     0
100
AcDbPoint
 10
1262.126949403641
 20
166.5327272833247
 30
0.0
  0
ENDBLK
  5
805E
330
805C
100
AcDbEntity
  8
0
100
AcDbBlockEnd
  0
BLOCK
  5
8077
330
8076
100
AcDbEntity
  8
0
100
AcDbBlockBegin
  2
*D345
 70
     1
 10
0.0
 20
0.0
 30
0.0
  3
*D345
  1

  0
LINE
  5
8079
330
8076
100
AcDbEntity
  8
标注
370
    -2
100
AcDbLine
 10
1230.468837135554
 20
166.2296380947155
 30
0.0
 11
1230.013630525331
 21
165.765647855585
 31
0.0
  0
MTEXT
  5
807A
330
8076
100
AcDbEntity
  8
标注
100
AcDbMText
 10
1231.747408133502
 20
168.005598712698
 30
0.0
 40
0.65
 41
0.0
 71
     5
 72
     1
  1
\A1;R3/8"
 11
0.7003178618831285
 21
0.7138311371237904
 31
0.0
 73
     1
 44
1.0
1001
ACAD
1000
MTEXTBEGIN
1070
    73
1070
     1
1070
    44
1040
1.0
1070
    74
1070
     0
1000
MTEXTEND
  0
LINE
  5
807B
330
8076
100
AcDbEntity
  8
标注
370
    -2
100
AcDbLine
 10
1231.199758888002
 20
166.9746636525315
 30
0.0
 11
1230.924043745779
 21
166.6936283338459
 31
0.0
  0
SOLID
  5
807C
330
8076
100
AcDbEntity
  8
标注
100
AcDbTrace
 10
1230.391505429033
 20
166.3055058630862
 30
0.0
 11
1230.546168842076
 21
166.1537703263448
 31
0.0
 12
1230.924043745779
 22
166.6936283338459
 32
0.0
 13
1230.924043745779
 23
166.6936283338459
 33
0.0
  0
POINT
  5
807D
330
8076
100
AcDbEntity
  8
DEFPOINTS
 62
     0
100
AcDbPoint
 10
1230.924043745779
 20
166.6936283338459
 30
0.0
  0
POINT
  5
807E
330
8076
100
AcDbEntity
  8
DEFPOINTS
 62
     0
100
AcDbPoint
 10
1231.199758888002
 20
166.9746636525315
 30
0.0
  0
ENDBLK
  5
8078
330
8076
100
AcDbEntity
  8
0
100
AcDbBlockEnd
  0
BLOCK
  5
8081
330
8080
100
AcDbEntity
  8
0
100
AcDbBlockBegin
  2
*D346
 70
     1
 10
0.0
 20
0.0
 30
0.0
  3
*D346
  1

  0
LINE
  5
8089
330
8080
100
AcDbEntity
  8
标注
370
    -2
100
AcDbLine
 10
1230.432768389756
 20
137.103903708109
 30
0.0
 11
1229.958041012292
 21
136.6599060537388
 31
0.0
  0
MTEXT
  5
808A
330
8080
100
AcDbEntity
  8
标注
100
AcDbMText
 10
1231.801786262161
 20
138.9961051643161
 30
0.0
 40
0.65
 41
0.0
 71
     5
 72
     1
  1
\A1;4-R3/8"
 11
0.7303498114830049
 21
0.6830733144156191
 31
0.0
 73
     1
 44
1.0
1001
ACAD
1000
MTEXTBEGIN
1070
    73
1070
     1
1070
    44
1040
1.0
1070
    74
1070
     0
1000
MTEXTEND
  0
LINE
  5
808B
330
8080
100
AcDbEntity
  8
标注
370
    -2
100
AcDbLine
 10
1231.195034488001
 20
137.8168273263646
 30
0.0
 11
1230.90749576722
 21
137.547901362479
 31
0.0
  0
SOLID
  5
808C
330
8080
100
AcDbEntity
  8
标注
100
AcDbTrace
 10
1230.358768780694
 20
137.1830249376862
 30
0.0
 11
1230.506767998818
 21
137.0247824785316
 31
0.0
 12
1230.90749576722
 22
137.547901362479
 32
0.0
 13
1230.90749576722
 23
137.547901362479
 33
0.0
  0
POINT
  5
808D
330
8080
100
AcDbEntity
  8
DEFPOINTS
 62
     0
100
AcDbPoint
 10
1230.90749576722
 20
137.547901362479
 30
0.0
  0
POINT
  5
808E
330
8080
100
AcDbEntity
  8
DEFPOINTS
 62
     0
100
AcDbPoint
 10
1231.195034488001
 20
137.8168273263646
 30
0.0
  0
ENDBLK
  5
8082
330
8080
100
AcDbEntity
  8
0
100
AcDbBlockEnd
  0
BLOCK
  5
8091
330
8090
100
AcDbEntity
  8
0
100
AcDbBlockBegin
  2
*D347
 70
     1
 10
0.0
 20
0.0
 30
0.0
  3
*D347
  1

  0
LINE
  5
8093
330
8090
100
AcDbEntity
  8
标注
370
    -2
100
AcDbLine
 10
1230.556599675105
 20
106.102688422634
 30
0.0
 11
1230.187044514128
 21
105.5679651456064
 31
0.0
  0
MTEXT
  5
8094
330
8090
100
AcDbEntity
  8
标注
100
AcDbMText
 10
1231.595928399114
 20
108.2340444669364
 30
0.0
 40
0.65
 41
0.0
 71
     5
 72
     1
  1
\A1;R1/2"
 11
0.5685464015033243
 21
0.8226511954270904
 31
0.0
 73
     1
 44
1.0
1001
ACAD
1000
MTEXTBEGIN
1070
    73
1070
     1
1070
    44
1040
1.0
1070
    74
1070
     0
1000
MTEXTEND
  0
LINE
  5
8095
330
8090
100
AcDbEntity
  8
标注
370
    -2
100
AcDbLine
 10
1231.194758898009
 20
107.0260650304292
 30
0.0
 11
1230.926154836083
 21
106.6374116996617
 31
0.0
  0
SOLID
  5
8096
330
8090
100
AcDbEntity
  8
标注
100
AcDbTrace
 10
1230.467479128934
 20
106.1642809494635
 30
0.0
 11
1230.645720221277
 21
106.0410958958044
 31
0.0
 12
1230.926154836083
 22
106.6374116996617
 32
0.0
 13
1230.926154836083
 23
106.6374116996617
 33
0.0
  0
POINT
  5
8097
330
8090
100
AcDbEntity
  8
DEFPOINTS
 62
     0
100
AcDbPoint
 10
1230.926154836083
 20
106.6374116996617
 30
0.0
  0
POINT
  5
8098
330
8090
100
AcDbEntity
  8
DEFPOINTS
 62
     0
100
AcDbPoint
 10
1231.194758898009
 20
107.0260650304292
 30
0.0
  0
ENDBLK
  5
8092
330
8090
100
AcDbEntity
  8
0
100
AcDbBlockEnd
  0
BLOCK
  5
81F9
330
81F8
100
AcDbEntity
  8
0
100
AcDbBlockBegin
  2
*D349
 70
     1
 10
0.0
 20
0.0
 30
0.0
  3
*D349
  1

  0
LINE
  5
82ED
330
81F8
100
AcDbEntity
  8
标注
370
    -2
100
AcDbLine
 10
1266.949327367149
 20
103.6749508948641
 30
0.0
 11
1266.949327367149
 21
101.3984338723258
 31
0.0
  0
LINE
  5
82EE
330
81F8
100
AcDbEntity
  8
标注
370
    -2
100
AcDbLine
 10
1297.106747367153
 20
103.6749508948641
 30
0.0
 11
1297.106747367153
 21
101.3984338723258
 31
0.0
  0
LINE
  5
82EF
330
81F8
100
AcDbEntity
  8
标注
370
    -2
100
AcDbLine
 10
1267.59932736715
 20
101.7184338723259
 30
0.0
 11
1280.344902987888
 21
101.7184338723259
 31
0.0
  0
LINE
  5
82F0
330
81F8
100
AcDbEntity
  8
标注
370
    -2
100
AcDbLine
 10
1296.456747367153
 20
101.7184338723259
 30
0.0
 11
1283.711171746414
 21
101.7184338723259
 31
0.0
  0
SOLID
  5
82F1
330
81F8
100
AcDbEntity
  8
标注
100
AcDbTrace
 10
1267.59932736715
 20
101.8267672056592
 30
0.0
 11
1267.59932736715
 21
101.6101005389925
 31
0.0
 12
1266.949327367149
 22
101.7184338723259
 32
0.0
 13
1266.949327367149
 23
101.7184338723259
 33
0.0
  0
SOLID
  5
82F2
330
81F8
100
AcDbEntity
  8
标注
100
AcDbTrace
 10
1296.456747367153
 20
101.8267672056592
 30
0.0
 11
1296.456747367153
 21
101.6101005389925
 31
0.0
 12
1297.106747367153
 22
101.7184338723259
 32
0.0
 13
1297.106747367153
 23
101.7184338723259
 33
0.0
  0
MTEXT
  5
82F3
330
81F8
100
AcDbEntity
  8
标注
100
AcDbMText
 10
1282.028037367151
 20
101.7184338723259
 30
0.0
 40
0.65
 41
0.0
 71
     5
 72
     1
  1
\A1;30 1/8"
 73
     1
 44
1.0
1001
ACAD
1000
MTEXTBEGIN
1070
    73
1070
     1
1070
    44
1040
1.0
1070
    74
1070
     0
1000
MTEXTEND
  0
POINT
  5
82F4
330
81F8
100
AcDbEntity
  8
DEFPOINTS
 62
     0
100
AcDbPoint
 10
1266.949327367149
 20
104.5549508948641
 30
0.0
  0
POINT
  5
82F5
330
81F8
100
AcDbEntity
  8
DEFPOINTS
 62
     0
100
AcDbPoint
 10
1297.106747367153
 20
104.5549508948641
 30
0.0
  0
POINT
  5
82F6
330
81F8
100
AcDbEntity
  8
DEFPOINTS
 62
     0
100
AcDbPoint
 10
1297.106747367153
 20
101.7184338723259
 30
0.0
  0
ENDBLK
  5
81FA
330
81F8
100
AcDbEntity
  8
0
100
AcDbBlockEnd
  0
BLOCK
  5
8207
330
8206
100
AcDbEntity
  8
0
100
AcDbBlockBegin
  2
*D350
 70
     1
 10
0.0
 20
0.0
 30
0.0
  3
*D350
  1

  0
LINE
  5
82F7
330
8206
100
AcDbEntity
  8
标注
370
    -2
100
AcDbLine
 10
1297.514307367155
 20
104.0825108948663
 30
0.0
 11
1299.832067936061
 21
104.0825108948663
 31
0.0
  0
LINE
  5
82F8
330
8206
100
AcDbEntity
  8
标注
370
    -2
100
AcDbLine
 10
1297.514307367155
 20
120.2399588948644
 30
0.0
 11
1299.832067936061
 21
120.2399588948644
 31
0.0
  0
LINE
  5
82F9
330
8206
100
AcDbEntity
  8
标注
370
    -2
100
AcDbLine
 10
1299.512067936061
 20
104.7325108948663
 30
0.0
 11
1299.512067936061
 21
110.5084722754929
 31
0.0
  0
LINE
  5
82FA
330
8206
100
AcDbEntity
  8
标注
370
    -2
100
AcDbLine
 10
1299.512067936061
 20
119.5899588948645
 30
0.0
 11
1299.512067936061
 21
113.8139975142378
 31
0.0
  0
SOLID
  5
82FB
330
8206
100
AcDbEntity
  8
标注
100
AcDbTrace
 10
1299.403734602728
 20
104.7325108948663
 30
0.0
 11
1299.620401269395
 21
104.7325108948663
 31
0.0
 12
1299.512067936061
 22
104.0825108948663
 32
0.0
 13
1299.512067936061
 23
104.0825108948663
 33
0.0
  0
SOLID
  5
82FC
330
8206
100
AcDbEntity
  8
标注
100
AcDbTrace
 10
1299.403734602728
 20
119.5899588948645
 30
0.0
 11
1299.620401269395
 21
119.5899588948645
 31
0.0
 12
1299.512067936061
 22
120.2399588948644
 32
0.0
 13
1299.512067936061
 23
120.2399588948644
 33
0.0
  0
MTEXT
  5
82FD
330
8206
100
AcDbEntity
  8
标注
100
AcDbMText
 10
1299.512067936061
 20
112.1612348948656
 30
0.0
 40
0.65
 41
0.0
 71
     5
 72
     1
  1
\A1;16 1/8"
 11
0.0000000000000001
 21
1.0
 31
0.0
 73
     1
 44
1.0
1001
ACAD
1000
MTEXTBEGIN
1070
    73
1070
     1
1070
    44
1040
1.0
1070
    74
1070
     0
1000
MTEXTEND
  0
POINT
  5
82FE
330
8206
100
AcDbEntity
  8
DEFPOINTS
 62
     0
100
AcDbPoint
 10
1296.634307367155
 20
104.0825108948663
 30
0.0
  0
POINT
  5
82FF
330
8206
100
AcDbEntity
  8
DEFPOINTS
 62
     0
100
AcDbPoint
 10
1296.634307367155
 20
120.2399588948644
 30
0.0
  0
POINT
  5
8300
330
8206
100
AcDbEntity
  8
DEFPOINTS
 62
     0
100
AcDbPoint
 10
1299.512067936061
 20
120.2399588948644
 30
0.0
  0
ENDBLK
  5
8208
330
8206
100
AcDbEntity
  8
0
100
AcDbBlockEnd
  0
BLOCK
  5
821F
330
821E
100
AcDbEntity
  8
0
100
AcDbBlockBegin
  2
*D351
 70
     1
 10
0.0
 20
0.0
 30
0.0
  3
*D351
  1

  0
LINE
  5
8301
330
821E
100
AcDbEntity
  8
标注
370
    -2
100
AcDbLine
 10
1267.028067367154
 20
134.9313653197395
 30
0.0
 11
1267.028067367154
 21
132.1482662313487
 31
0.0
  0
LINE
  5
8302
330
821E
100
AcDbEntity
  8
标注
370
    -2
100
AcDbLine
 10
1286.028029367148
 20
134.9313653197395
 30
0.0
 11
1286.028029367148
 21
132.1482662313487
 31
0.0
  0
LINE
  5
8303
330
821E
100
AcDbEntity
  8
标注
370
    -2
100
AcDbLine
 10
1267.678067367154
 20
132.4682662313487
 30
0.0
 11
1275.632584519948
 21
132.4682662313487
 31
0.0
  0
LINE
  5
8304
330
821E
100
AcDbEntity
  8
标注
370
    -2
100
AcDbLine
 10
1285.378029367148
 20
132.4682662313487
 30
0.0
 11
1277.423512214354
 21
132.4682662313487
 31
0.0
  0
SOLID
  5
8305
330
821E
100
AcDbEntity
  8
标注
100
AcDbTrace
 10
1267.678067367154
 20
132.576599564682
 30
0.0
 11
1267.678067367154
 21
132.3599328980154
 31
0.0
 12
1267.028067367154
 22
132.4682662313487
 32
0.0
 13
1267.028067367154
 23
132.4682662313487
 33
0.0
  0
SOLID
  5
8306
330
821E
100
AcDbEntity
  8
标注
100
AcDbTrace
 10
1285.378029367148
 20
132.576599564682
 30
0.0
 11
1285.378029367148
 21
132.3599328980154
 31
0.0
 12
1286.028029367148
 22
132.4682662313487
 32
0.0
 13
1286.028029367148
 23
132.4682662313487
 33
0.0
  0
MTEXT
  5
8307
330
821E
100
AcDbEntity
  8
标注
100
AcDbMText
 10
1276.528048367151
 20
132.4682662313487
 30
0.0
 40
0.65
 41
0.0
 71
     5
 72
     1
  1
\A1;19"
 73
     1
 44
1.0
1001
ACAD
1000
MTEXTBEGIN
1070
    73
1070
     1
1070
    44
1040
1.0
1070
    74
1070
     0
1000
MTEXTEND
  0
POINT
  5
8308
330
821E
100
AcDbEntity
  8
DEFPOINTS
 62
     0
100
AcDbPoint
 10
1267.028067367154
 20
135.8113653197394
 30
0.0
  0
POINT
  5
8309
330
821E
100
AcDbEntity
  8
DEFPOINTS
 62
     0
100
AcDbPoint
 10
1286.028029367148
 20
135.8113653197394
 30
0.0
  0
POINT
  5
830A
330
821E
100
AcDbEntity
  8
DEFPOINTS
 62
     0
100
AcDbPoint
 10
1286.028029367148
 20
132.4682662313487
 30
0.0
  0
ENDBLK
  5
8220
330
821E
100
AcDbEntity
  8
0
100
AcDbBlockEnd
  0
BLOCK
  5
822D
330
822C
100
AcDbEntity
  8
0
100
AcDbBlockBegin
  2
*D352
 70
     1
 10
0.0
 20
0.0
 30
0.0
  3
*D352
  1

  0
LINE
  5
830B
330
822C
100
AcDbEntity
  8
标注
370
    -2
100
AcDbLine
 10
1287.028027367147
 20
134.9313653197395
 30
0.0
 11
1287.028027367147
 21
132.1482662313487
 31
0.0
  0
LINE
  5
830C
330
822C
100
AcDbEntity
  8
标注
370
    -2
100
AcDbLine
 10
1297.028007367155
 20
134.9313653197395
 30
0.0
 11
1297.028007367155
 21
132.1482662313487
 31
0.0
  0
LINE
  5
830D
330
822C
100
AcDbEntity
  8
标注
370
    -2
100
AcDbLine
 10
1287.678027367147
 20
132.4682662313487
 30
0.0
 11
1291.132553519948
 21
132.4682662313487
 31
0.0
  0
LINE
  5
830E
330
822C
100
AcDbEntity
  8
标注
370
    -2
100
AcDbLine
 10
1296.378007367155
 20
132.4682662313487
 30
0.0
 11
1292.923481214354
 21
132.4682662313487
 31
0.0
  0
SOLID
  5
830F
330
822C
100
AcDbEntity
  8
标注
100
AcDbTrace
 10
1287.678027367147
 20
132.576599564682
 30
0.0
 11
1287.678027367147
 21
132.3599328980154
 31
0.0
 12
1287.028027367147
 22
132.4682662313487
 32
0.0
 13
1287.028027367147
 23
132.4682662313487
 33
0.0
  0
SOLID
  5
8310
330
822C
100
AcDbEntity
  8
标注
100
AcDbTrace
 10
1296.378007367155
 20
132.576599564682
 30
0.0
 11
1296.378007367155
 21
132.3599328980154
 31
0.0
 12
1297.028007367155
 22
132.4682662313487
 32
0.0
 13
1297.028007367155
 23
132.4682662313487
 33
0.0
  0
MTEXT
  5
8311
330
822C
100
AcDbEntity
  8
标注
100
AcDbMText
 10
1292.028017367151
 20
132.4682662313487
 30
0.0
 40
0.65
 41
0.0
 71
     5
 72
     1
  1
\A1;10"
 73
     1
 44
1.0
1001
ACAD
1000
MTEXTBEGIN
1070
    73
1070
     1
1070
    44
1040
1.0
1070
    74
1070
     0
1000
MTEXTEND
  0
POINT
  5
8312
330
822C
100
AcDbEntity
  8
DEFPOINTS
 62
     0
100
AcDbPoint
 10
1287.028027367147
 20
135.8113653197394
 30
0.0
  0
POINT
  5
8313
330
822C
100
AcDbEntity
  8
DEFPOINTS
 62
     0
100
AcDbPoint
 10
1297.028007367155
 20
135.8113653197394
 30
0.0
  0
POINT
  5
8314
330
822C
100
AcDbEntity
  8
DEFPOINTS
 62
     0
100
AcDbPoint
 10
1297.028007367155
 20
132.4682662313487
 30
0.0
  0
ENDBLK
  5
822E
330
822C
100
AcDbEntity
  8
0
100
AcDbBlockEnd
  0
BLOCK
  5
823B
330
823A
100
AcDbEntity
  8
0
100
AcDbBlockBegin
  2
*D353
 70
     1
 10
0.0
 20
0.0
 30
0.0
  3
*D353
  1

  0
LINE
  5
8315
330
823A
100
AcDbEntity
  8
标注
370
    -2
100
AcDbLine
 10
1297.514307367155
 20
135.4176653197389
 30
0.0
 11
1300.253722668561
 21
135.4176653197389
 31
0.0
  0
LINE
  5
8316
330
823A
100
AcDbEntity
  8
标注
370
    -2
100
AcDbLine
 10
1297.514307367155
 20
151.4176333197281
 30
0.0
 11
1300.253722668561
 21
151.4176333197281
 31
0.0
  0
LINE
  5
8317
330
823A
100
AcDbEntity
  8
标注
370
    -2
100
AcDbLine
 10
1299.933722668561
 20
136.0676653197389
 30
0.0
 11
1299.933722668561
 21
142.5221854725302
 31
0.0
  0
LINE
  5
8318
330
823A
100
AcDbEntity
  8
标注
370
    -2
100
AcDbLine
 10
1299.933722668561
 20
150.7676333197281
 30
0.0
 11
1299.933722668561
 21
144.3131131669368
 31
0.0
  0
SOLID
  5
8319
330
823A
100
AcDbEntity
  8
标注
100
AcDbTrace
 10
1299.825389335228
 20
136.0676653197389
 30
0.0
 11
1300.042056001895
 21
136.0676653197389
 31
0.0
 12
1299.933722668561
 22
135.4176653197389
 32
0.0
 13
1299.933722668561
 23
135.4176653197389
 33
0.0
  0
SOLID
  5
831A
330
823A
100
AcDbEntity
  8
标注
100
AcDbTrace
 10
1299.825389335228
 20
150.7676333197281
 30
0.0
 11
1300.042056001895
 21
150.7676333197281
 31
0.0
 12
1299.933722668561
 22
151.4176333197281
 32
0.0
 13
1299.933722668561
 23
151.4176333197281
 33
0.0
  0
MTEXT
  5
831B
330
823A
100
AcDbEntity
  8
标注
100
AcDbMText
 10
1299.933722668561
 20
143.4176493197337
 30
0.0
 40
0.65
 41
0.0
 71
     5
 72
     1
  1
\A1;16"
 11
0.0000000000000001
 21
1.0
 31
0.0
 73
     1
 44
1.0
1001
ACAD
1000
MTEXTBEGIN
1070
    73
1070
     1
1070
    44
1040
1.0
1070
    74
1070
     0
1000
MTEXTEND
  0
POINT
  5
831C
330
823A
100
AcDbEntity
  8
DEFPOINTS
 62
     0
100
AcDbPoint
 10
1296.634307367155
 20
135.4176653197389
 30
0.0
  0
POINT
  5
831D
330
823A
100
AcDbEntity
  8
DEFPOINTS
 62
     0
100
AcDbPoint
 10
1296.634307367155
 20
151.4176333197281
 30
0.0
  0
POINT
  5
831E
330
823A
100
AcDbEntity
  8
DEFPOINTS
 62
     0
100
AcDbPoint
 10
1299.933722668561
 20
151.4176333197281
 30
0.0
  0
ENDBLK
  5
823C
330
823A
100
AcDbEntity
  8
0
100
AcDbBlockEnd
  0
BLOCK
  5
8249
330
8248
100
AcDbEntity
  8
0
100
AcDbBlockBegin
  2
*D354
 70
     1
 10
0.0
 20
0.0
 30
0.0
  3
*D354
  1

  0
LINE
  5
831F
330
8248
100
AcDbEntity
  8
标注
370
    -2
100
AcDbLine
 10
1297.908007367155
 20
134.4176673197396
 30
0.0
 11
1302.03365146077
 21
134.4176673197396
 31
0.0
  0
LINE
  5
8320
330
8248
100
AcDbEntity
  8
标注
370
    -2
100
AcDbLine
 10
1297.908007367155
 20
152.4176313197274
 30
0.0
 11
1302.03365146077
 21
152.4176313197274
 31
0.0
  0
LINE
  5
8321
330
8248
100
AcDbEntity
  8
标注
370
    -2
100
AcDbLine
 10
1301.71365146077
 20
135.0676673197396
 30
0.0
 11
1301.71365146077
 21
142.5221854725302
 31
0.0
  0
LINE
  5
8322
330
8248
100
AcDbEntity
  8
标注
370
    -2
100
AcDbLine
 10
1301.71365146077
 20
151.7676313197274
 30
0.0
 11
1301.71365146077
 21
144.3131131669368
 31
0.0
  0
SOLID
  5
8323
330
8248
100
AcDbEntity
  8
标注
100
AcDbTrace
 10
1301.605318127437
 20
135.0676673197396
 30
0.0
 11
1301.821984794104
 21
135.0676673197396
 31
0.0
 12
1301.71365146077
 22
134.4176673197396
 32
0.0
 13
1301.71365146077
 23
134.4176673197396
 33
0.0
  0
SOLID
  5
8324
330
8248
100
AcDbEntity
  8
标注
100
AcDbTrace
 10
1301.605318127437
 20
151.7676313197274
 30
0.0
 11
1301.821984794104
 21
151.7676313197274
 31
0.0
 12
1301.71365146077
 22
152.4176313197274
 32
0.0
 13
1301.71365146077
 23
152.4176313197274
 33
0.0
  0
MTEXT
  5
8325
330
8248
100
AcDbEntity
  8
标注
100
AcDbMText
 10
1301.71365146077
 20
143.4176493197337
 30
0.0
 40
0.65
 41
0.0
 71
     5
 72
     1
  1
\A1;18"
 11
0.0000000000000001
 21
1.0
 31
0.0
 73
     1
 44
1.0
1001
ACAD
1000
MTEXTBEGIN
1070
    73
1070
     1
1070
    44
1040
1.0
1070
    74
1070
     0
1000
MTEXTEND
  0
POINT
  5
8326
330
8248
100
AcDbEntity
  8
DEFPOINTS
 62
     0
100
AcDbPoint
 10
1297.028007367155
 20
134.4176673197396
 30
0.0
  0
POINT
  5
8327
330
8248
100
AcDbEntity
  8
DEFPOINTS
 62
     0
100
AcDbPoint
 10
1297.028007367155
 20
152.4176313197274
 30
0.0
  0
POINT
  5
8328
330
8248
100
AcDbEntity
  8
DEFPOINTS
 62
     0
100
AcDbPoint
 10
1301.71365146077
 20
152.4176313197274
 30
0.0
  0
ENDBLK
  5
824A
330
8248
100
AcDbEntity
  8
0
100
AcDbBlockEnd
  0
BLOCK
  5
8257
330
8256
100
AcDbEntity
  8
0
100
AcDbBlockBegin
  2
*D355
 70
     1
 10
0.0
 20
0.0
 30
0.0
  3
*D355
  1

  0
LINE
  5
8329
330
8256
100
AcDbEntity
  8
标注
370
    -2
100
AcDbLine
 10
1266.028069367155
 20
134.4707363197311
 30
0.0
 11
1266.028069367155
 21
130.2417782770771
 31
0.0
  0
LINE
  5
832A
330
8256
100
AcDbEntity
  8
标注
370
    -2
100
AcDbLine
 10
1298.028005367155
 20
134.5376653197389
 30
0.0
 11
1298.028005367155
 21
130.2417782770771
 31
0.0
  0
LINE
  5
832B
330
8256
100
AcDbEntity
  8
标注
370
    -2
100
AcDbLine
 10
1266.678069367155
 20
130.5617782770771
 30
0.0
 11
1281.102201760061
 21
130.5617782770771
 31
0.0
  0
LINE
  5
832C
330
8256
100
AcDbEntity
  8
标注
370
    -2
100
AcDbLine
 10
1297.378005367155
 20
130.5617782770771
 30
0.0
 11
1282.953872974249
 21
130.5617782770771
 31
0.0
  0
SOLID
  5
832D
330
8256
100
AcDbEntity
  8
标注
100
AcDbTrace
 10
1266.678069367155
 20
130.6701116104104
 30
0.0
 11
1266.678069367155
 21
130.4534449437438
 31
0.0
 12
1266.028069367155
 22
130.5617782770771
 32
0.0
 13
1266.028069367155
 23
130.5617782770771
 33
0.0
  0
SOLID
  5
832E
330
8256
100
AcDbEntity
  8
标注
100
AcDbTrace
 10
1297.378005367155
 20
130.6701116104104
 30
0.0
 11
1297.378005367155
 21
130.4534449437438
 31
0.0
 12
1298.028005367155
 22
130.5617782770771
 32
0.0
 13
1298.028005367155
 23
130.5617782770771
 33
0.0
  0
MTEXT
  5
832F
330
8256
100
AcDbEntity
  8
标注
100
AcDbMText
 10
1282.028037367155
 20
130.5617782770771
 30
0.0
 40
0.65
 41
0.0
 71
     5
 72
     1
  1
\A1;32"
 73
     1
 44
1.0
1001
ACAD
1000
MTEXTBEGIN
1070
    73
1070
     1
1070
    44
1040
1.0
1070
    74
1070
     0
1000
MTEXTEND
  0
POINT
  5
8330
330
8256
100
AcDbEntity
  8
DEFPOINTS
 62
     0
100
AcDbPoint
 10
1266.028069367155
 20
135.3507363197311
 30
0.0
  0
POINT
  5
8331
330
8256
100
AcDbEntity
  8
DEFPOINTS
 62
     0
100
AcDbPoint
 10
1298.028005367155
 20
135.4176653197389
 30
0.0
  0
POINT
  5
8332
330
8256
100
AcDbEntity
  8
DEFPOINTS
 62
     0
100
AcDbPoint
 10
1298.028005367155
 20
130.5617782770771
 30
0.0
  0
ENDBLK
  5
8258
330
8256
100
AcDbEntity
  8
0
100
AcDbBlockEnd
  0
BLOCK
  5
8265
330
8264
100
AcDbEntity
  8
0
100
AcDbBlockBegin
  2
*D356
 70
     1
 10
0.0
 20
0.0
 30
0.0
  3
*D356
  1

  0
LINE
  5
8333
330
8264
100
AcDbEntity
  8
标注
370
    -2
100
AcDbLine
 10
1265.148069367147
 20
176.7614230440704
 30
0.0
 11
1263.700267254019
 21
176.7614230440704
 31
0.0
  0
LINE
  5
8334
330
8264
100
AcDbEntity
  8
标注
370
    -2
100
AcDbLine
 10
1265.573535528534
 20
166.8077030440654
 30
0.0
 11
1263.700267254019
 21
166.8077030440654
 31
0.0
  0
LINE
  5
8335
330
8264
100
AcDbEntity
  8
标注
370
    -2
100
AcDbLine
 10
1264.020267254019
 20
176.1114230440704
 30
0.0
 11
1264.020267254019
 21
172.6800268912711
 31
0.0
  0
LINE
  5
8336
330
8264
100
AcDbEntity
  8
标注
370
    -2
100
AcDbLine
 10
1264.020267254019
 20
167.4577030440654
 30
0.0
 11
1264.020267254019
 21
170.8890991968646
 31
0.0
  0
SOLID
  5
8337
330
8264
100
AcDbEntity
  8
标注
100
AcDbTrace
 10
1263.911933920686
 20
176.1114230440704
 30
0.0
 11
1264.128600587353
 21
176.1114230440704
 31
0.0
 12
1264.020267254019
 22
176.7614230440704
 32
0.0
 13
1264.020267254019
 23
176.7614230440704
 33
0.0
  0
SOLID
  5
8338
330
8264
100
AcDbEntity
  8
标注
100
AcDbTrace
 10
1263.911933920686
 20
167.4577030440654
 30
0.0
 11
1264.128600587353
 21
167.4577030440654
 31
0.0
 12
1264.020267254019
 22
166.8077030440654
 32
0.0
 13
1264.020267254019
 23
166.8077030440654
 33
0.0
  0
MTEXT
  5
8339
330
8264
100
AcDbEntity
  8
标注
100
AcDbMText
 10
1264.020267254019
 20
171.7845630440681
 30
0.0
 40
0.65
 41
0.0
 71
     5
 72
     1
  1
\A1;10"
 11
0.0000000000000001
 21
1.0
 31
0.0
 73
     1
 44
1.0
1001
ACAD
1000
MTEXTBEGIN
1070
    73
1070
     1
1070
    44
1040
1.0
1070
    74
1070
     0
1000
MTEXTEND
  0
POINT
  5
833A
330
8264
100
AcDbEntity
  8
DEFPOINTS
 62
     0
100
AcDbPoint
 10
1266.028069367147
 20
176.7614230440704
 30
0.0
  0
POINT
  5
833B
330
8264
100
AcDbEntity
  8
DEFPOINTS
 62
     0
100
AcDbPoint
 10
1266.453535528534
 20
166.8077030440654
 30
0.0
  0
POINT
  5
833C
330
8264
100
AcDbEntity
  8
DEFPOINTS
 62
     0
100
AcDbPoint
 10
1264.020267254019
 20
166.8077030440654
 30
0.0
  0
ENDBLK
  5
8266
330
8264
100
AcDbEntity
  8
0
100
AcDbBlockEnd
  0
BLOCK
  5
82AD
330
82AC
100
AcDbEntity
  8
0
100
AcDbBlockBegin
  2
*D357
 70
     1
 10
0.0
 20
0.0
 30
0.0
  3
*D357
  1

  0
LINE
  5
833D
330
82AC
100
AcDbEntity
  8
标注
370
    -2
100
AcDbLine
 10
1298.908005367155
 20
176.7614230440704
 30
0.0
 11
1299.844102600269
 21
176.7614230440704
 31
0.0
  0
LINE
  5
833E
330
82AC
100
AcDbEntity
  8
标注
370
    -2
100
AcDbLine
 10
1298.463774954065
 20
168.8076990440682
 30
0.0
 11
1299.844102600269
 21
168.8076990440682
 31
0.0
  0
LINE
  5
833F
330
82AC
100
AcDbEntity
  8
标注
370
    -2
100
AcDbLine
 10
1299.524102600269
 20
176.1114230440704
 30
0.0
 11
1299.524102600269
 21
173.4585549049151
 31
0.0
  0
LINE
  5
8340
330
82AC
100
AcDbEntity
  8
标注
370
    -2
100
AcDbLine
 10
1299.524102600269
 20
169.4576990440683
 30
0.0
 11
1299.524102600269
 21
172.1105671832235
 31
0.0
  0
SOLID
  5
8341
330
82AC
100
AcDbEntity
  8
标注
100
AcDbTrace
 10
1299.415769266936
 20
176.1114230440704
 30
0.0
 11
1299.632435933602
 21
176.1114230440704
 31
0.0
 12
1299.524102600269
 22
176.7614230440704
 32
0.0
 13
1299.524102600269
 23
176.7614230440704
 33
0.0
  0
SOLID
  5
8342
330
82AC
100
AcDbEntity
  8
标注
100
AcDbTrace
 10
1299.415769266936
 20
169.4576990440683
 30
0.0
 11
1299.632435933602
 21
169.4576990440683
 31
0.0
 12
1299.524102600269
 22
168.8076990440682
 32
0.0
 13
1299.524102600269
 23
168.8076990440682
 33
0.0
  0
MTEXT
  5
8343
330
82AC
100
AcDbEntity
  8
标注
100
AcDbMText
 10
1299.524102600269
 20
172.7845610440695
 30
0.0
 40
0.65
 41
0.0
 71
     5
 72
     1
  1
\A1;8"
 11
0.0000000000000001
 21
1.0
 31
0.0
 73
     1
 44
1.0
1001
ACAD
1000
MTEXTBEGIN
1070
    73
1070
     1
1070
    44
1040
1.0
1070
    74
1070
     0
1000
MTEXTEND
  0
POINT
  5
8344
330
82AC
100
AcDbEntity
  8
DEFPOINTS
 62
     0
100
AcDbPoint
 10
1298.028005367155
 20
176.7614230440704
 30
0.0
  0
POINT
  5
8345
330
82AC
100
AcDbEntity
  8
DEFPOINTS
 62
     0
100
AcDbPoint
 10
1297.583774954065
 20
168.8076990440682
 30
0.0
  0
POINT
  5
8346
330
82AC
100
AcDbEntity
  8
DEFPOINTS
 62
     0
100
AcDbPoint
 10
1299.524102600269
 20
168.8076990440682
 30
0.0
  0
ENDBLK
  5
82AE
330
82AC
100
AcDbEntity
  8
0
100
AcDbBlockEnd
  0
BLOCK
  5
82DB
330
82DA
100
AcDbEntity
  8
0
100
AcDbBlockBegin
  2
*D358
 70
     1
 10
0.0
 20
0.0
 30
0.0
  3
*D358
  1

  0
LINE
  5
8347
330
82DA
100
AcDbEntity
  8
标注
370
    -2
100
AcDbLine
 10
1266.558910314805
 20
166.7048194176286
 30
0.0
 11
1266.021536467893
 21
166.339129181698
 31
0.0
  0
MTEXT
  5
8348
330
82DA
100
AcDbEntity
  8
标注
100
AcDbMText
 10
1268.147919569245
 20
168.2574425976964
 30
0.0
 40
0.65
 41
0.0
 71
     5
 72
     1
  1
\A1;R3/8"
 11
0.8267289952492468
 21
0.5626003629701733
 31
0.0
 73
     1
 44
1.0
1001
ACAD
1000
MTEXTBEGIN
1070
    73
1070
     1
1070
    44
1040
1.0
1070
    74
1070
     0
1000
MTEXTEND
  0
LINE
  5
8349
330
82DA
100
AcDbEntity
  8
标注
370
    -2
100
AcDbLine
 10
1267.421767367147
 20
167.2920054164607
 30
0.0
 11
1267.096284161717
 21
167.0705096535591
 31
0.0
  0
SOLID
  5
834A
330
82DA
100
AcDbEntity
  8
标注
100
AcDbTrace
 10
1266.49796194215
 20
166.7943817254472
 30
0.0
 11
1266.61985868746
 21
166.6152571098098
 31
0.0
 12
1267.096284161717
 22
167.0705096535591
 32
0.0
 13
1267.096284161717
 23
167.0705096535591
 33
0.0
  0
POINT
  5
834B
330
82DA
100
AcDbEntity
  8
DEFPOINTS
 62
     0
100
AcDbPoint
 10
1267.096284161717
 20
167.0705096535591
 30
0.0
  0
POINT
  5
834C
330
82DA
100
AcDbEntity
  8
DEFPOINTS
 62
     0
100
AcDbPoint
 10
1267.421767367147
 20
167.2920054164607
 30
0.0
  0
ENDBLK
  5
82DC
330
82DA
100
AcDbEntity
  8
0
100
AcDbBlockEnd
  0
BLOCK
  5
82E5
330
82E4
100
AcDbEntity
  8
0
100
AcDbBlockBegin
  2
*D359
 70
     1
 10
0.0
 20
0.0
 30
0.0
  3
*D359
  1

  0
LINE
  5
834D
330
82E4
100
AcDbEntity
  8
标注
370
    -2
100
AcDbLine
 10
1266.714268544966
 20
135.0440615294437
 30
0.0
 11
1266.273649368553
 21
134.5661967563363
 31
0.0
  0
MTEXT
  5
834E
330
82E4
100
AcDbEntity
  8
标注
100
AcDbMText
 10
1267.98939563043
 20
137.0259860166478
 30
0.0
 40
0.65
 41
0.0
 71
     5
 72
     1
  1
\A1;R3/8"
 11
0.6778756560202825
 21
0.7351765740113541
 31
0.0
 73
     1
 44
1.0
1001
ACAD
1000
MTEXTBEGIN
1070
    73
1070
     1
1070
    44
1040
1.0
1070
    74
1070
     0
1000
MTEXTEND
  0
LINE
  5
834F
330
82E4
100
AcDbEntity
  8
标注
370
    -2
100
AcDbLine
 10
1267.421767367155
 20
135.8113653197393
 30
0.0
 11
1267.154887721379
 21
135.5219263025511
 31
0.0
  0
SOLID
  5
8350
330
82E4
100
AcDbEntity
  8
标注
100
AcDbTrace
 10
1266.634624416115
 20
135.1174980588459
 30
0.0
 11
1266.793912673817
 21
134.9706250000415
 31
0.0
 12
1267.154887721379
 22
135.5219263025511
 32
0.0
 13
1267.154887721379
 23
135.5219263025511
 33
0.0
  0
POINT
  5
8351
330
82E4
100
AcDbEntity
  8
DEFPOINTS
 62
     0
100
AcDbPoint
 10
1267.154887721379
 20
135.5219263025511
 30
0.0
  0
POINT
  5
8352
330
82E4
100
AcDbEntity
  8
DEFPOINTS
 62
     0
100
AcDbPoint
 10
1267.421767367155
 20
135.8113653197393
 30
0.0
  0
ENDBLK
  5
82E6
330
82E4
100
AcDbEntity
  8
0
100
AcDbBlockEnd
  0
BLOCK
  5
840A
330
8409
100
AcDbEntity
  8
0
100
AcDbBlockBegin
  2
*D360
 70
     1
 10
0.0
 20
0.0
 30
0.0
  3
*D360
  1

  0
LINE
  5
8476
330
8409
100
AcDbEntity
  8
标注
370
    -2
100
AcDbLine
 10
1357.557874110774
 20
134.9313653197395
 30
0.0
 11
1357.557874110774
 21
132.1482662313487
 31
0.0
  0
LINE
  5
8477
330
8409
100
AcDbEntity
  8
标注
370
    -2
100
AcDbLine
 10
1338.55791211078
 20
134.9313653197395
 30
0.0
 11
1338.55791211078
 21
132.1482662313487
 31
0.0
  0
LINE
  5
8478
330
8409
100
AcDbEntity
  8
标注
370
    -2
100
AcDbLine
 10
1356.907874110774
 20
132.4682662313487
 30
0.0
 11
1348.95335695798
 21
132.4682662313487
 31
0.0
  0
LINE
  5
8479
330
8409
100
AcDbEntity
  8
标注
370
    -2
100
AcDbLine
 10
1339.20791211078
 20
132.4682662313487
 30
0.0
 11
1347.162429263573
 21
132.4682662313487
 31
0.0
  0
SOLID
  5
847A
330
8409
100
AcDbEntity
  8
标注
100
AcDbTrace
 10
1356.907874110774
 20
132.576599564682
 30
0.0
 11
1356.907874110774
 21
132.3599328980154
 31
0.0
 12
1357.557874110774
 22
132.4682662313487
 32
0.0
 13
1357.557874110774
 23
132.4682662313487
 33
0.0
  0
SOLID
  5
847B
330
8409
100
AcDbEntity
  8
标注
100
AcDbTrace
 10
1339.20791211078
 20
132.576599564682
 30
0.0
 11
1339.20791211078
 21
132.3599328980154
 31
0.0
 12
1338.55791211078
 22
132.4682662313487
 32
0.0
 13
1338.55791211078
 23
132.4682662313487
 33
0.0
  0
MTEXT
  5
847C
330
8409
100
AcDbEntity
  8
标注
100
AcDbMText
 10
1348.057893110777
 20
132.4682662313487
 30
0.0
 40
0.65
 41
0.0
 71
     5
 72
     1
  1
\A1;19"
 73
     1
 44
1.0
1001
ACAD
1000
MTEXTBEGIN
1070
    73
1070
     1
1070
    44
1040
1.0
1070
    74
1070
     0
1000
MTEXTEND
  0
POINT
  5
847D
330
8409
100
AcDbEntity
  8
DEFPOINTS
 62
     0
100
AcDbPoint
 10
1357.557874110774
 20
135.8113653197394
 30
0.0
  0
POINT
  5
847E
330
8409
100
AcDbEntity
  8
DEFPOINTS
 62
     0
100
AcDbPoint
 10
1338.55791211078
 20
135.8113653197394
 30
0.0
  0
POINT
  5
847F
330
8409
100
AcDbEntity
  8
DEFPOINTS
 62
     0
100
AcDbPoint
 10
1338.55791211078
 20
132.4682662313487
 30
0.0
  0
ENDBLK
  5
840B
330
8409
100
AcDbEntity
  8
0
100
AcDbBlockEnd
  0
BLOCK
  5
8417
330
8416
100
AcDbEntity
  8
0
100
AcDbBlockBegin
  2
*D361
 70
     1
 10
0.0
 20
0.0
 30
0.0
  3
*D361
  1

  0
LINE
  5
8480
330
8416
100
AcDbEntity
  8
标注
370
    -2
100
AcDbLine
 10
1337.55791411078
 20
134.9313653197395
 30
0.0
 11
1337.55791411078
 21
132.1482662313487
 31
0.0
  0
LINE
  5
8481
330
8416
100
AcDbEntity
  8
标注
370
    -2
100
AcDbLine
 10
1327.557934110773
 20
134.9313653197395
 30
0.0
 11
1327.557934110773
 21
132.1482662313487
 31
0.0
  0
LINE
  5
8482
330
8416
100
AcDbEntity
  8
标注
370
    -2
100
AcDbLine
 10
1336.90791411078
 20
132.4682662313487
 30
0.0
 11
1333.45338795798
 21
132.4682662313487
 31
0.0
  0
LINE
  5
8483
330
8416
100
AcDbEntity
  8
标注
370
    -2
100
AcDbLine
 10
1328.207934110773
 20
132.4682662313487
 30
0.0
 11
1331.662460263573
 21
132.4682662313487
 31
0.0
  0
SOLID
  5
8484
330
8416
100
AcDbEntity
  8
标注
100
AcDbTrace
 10
1336.90791411078
 20
132.576599564682
 30
0.0
 11
1336.90791411078
 21
132.3599328980154
 31
0.0
 12
1337.55791411078
 22
132.4682662313487
 32
0.0
 13
1337.55791411078
 23
132.4682662313487
 33
0.0
  0
SOLID
  5
8485
330
8416
100
AcDbEntity
  8
标注
100
AcDbTrace
 10
1328.207934110773
 20
132.576599564682
 30
0.0
 11
1328.207934110773
 21
132.3599328980154
 31
0.0
 12
1327.557934110773
 22
132.4682662313487
 32
0.0
 13
1327.557934110773
 23
132.4682662313487
 33
0.0
  0
MTEXT
  5
8486
330
8416
100
AcDbEntity
  8
标注
100
AcDbMText
 10
1332.557924110777
 20
132.4682662313487
 30
0.0
 40
0.65
 41
0.0
 71
     5
 72
     1
  1
\A1;10"
 73
     1
 44
1.0
1001
ACAD
1000
MTEXTBEGIN
1070
    73
1070
     1
1070
    44
1040
1.0
1070
    74
1070
     0
1000
MTEXTEND
  0
POINT
  5
8487
330
8416
100
AcDbEntity
  8
DEFPOINTS
 62
     0
100
AcDbPoint
 10
1337.55791411078
 20
135.8113653197394
 30
0.0
  0
POINT
  5
8488
330
8416
100
AcDbEntity
  8
DEFPOINTS
 62
     0
100
AcDbPoint
 10
1327.557934110773
 20
135.8113653197394
 30
0.0
  0
POINT
  5
8489
330
8416
100
AcDbEntity
  8
DEFPOINTS
 62
     0
100
AcDbPoint
 10
1327.557934110773
 20
132.4682662313487
 30
0.0
  0
ENDBLK
  5
8418
330
8416
100
AcDbEntity
  8
0
100
AcDbBlockEnd
  0
BLOCK
  5
8424
330
8423
100
AcDbEntity
  8
0
100
AcDbBlockBegin
  2
*D362
 70
     1
 10
0.0
 20
0.0
 30
0.0
  3
*D362
  1

  0
LINE
  5
848A
330
8423
100
AcDbEntity
  8
标注
370
    -2
100
AcDbLine
 10
1327.071634110773
 20
135.4176653197389
 30
0.0
 11
1324.332218809366
 21
135.4176653197389
 31
0.0
  0
LINE
  5
848B
330
8423
100
AcDbEntity
  8
标注
370
    -2
100
AcDbLine
 10
1327.071634110773
 20
151.4176333197281
 30
0.0
 11
1324.332218809366
 21
151.4176333197281
 31
0.0
  0
LINE
  5
848C
330
8423
100
AcDbEntity
  8
标注
370
    -2
100
AcDbLine
 10
1324.652218809366
 20
136.0676653197389
 30
0.0
 11
1324.652218809366
 21
142.5221854725302
 31
0.0
  0
LINE
  5
848D
330
8423
100
AcDbEntity
  8
标注
370
    -2
100
AcDbLine
 10
1324.652218809366
 20
150.7676333197281
 30
0.0
 11
1324.652218809366
 21
144.3131131669368
 31
0.0
  0
SOLID
  5
848E
330
8423
100
AcDbEntity
  8
标注
100
AcDbTrace
 10
1324.543885476033
 20
136.0676653197389
 30
0.0
 11
1324.7605521427
 21
136.0676653197389
 31
0.0
 12
1324.652218809366
 22
135.4176653197389
 32
0.0
 13
1324.652218809366
 23
135.4176653197389
 33
0.0
  0
SOLID
  5
848F
330
8423
100
AcDbEntity
  8
标注
100
AcDbTrace
 10
1324.543885476033
 20
150.7676333197281
 30
0.0
 11
1324.7605521427
 21
150.7676333197281
 31
0.0
 12
1324.652218809366
 22
151.4176333197281
 32
0.0
 13
1324.652218809366
 23
151.4176333197281
 33
0.0
  0
MTEXT
  5
8490
330
8423
100
AcDbEntity
  8
标注
100
AcDbMText
 10
1324.652218809366
 20
143.4176493197337
 30
0.0
 40
0.65
 41
0.0
 71
     5
 72
     1
  1
\A1;16"
 11
0.0000000000000001
 21
1.0
 31
0.0
 73
     1
 44
1.0
1001
ACAD
1000
MTEXTBEGIN
1070
    73
1070
     1
1070
    44
1040
1.0
1070
    74
1070
     0
1000
MTEXTEND
  0
POINT
  5
8491
330
8423
100
AcDbEntity
  8
DEFPOINTS
 62
     0
100
AcDbPoint
 10
1327.951634110773
 20
135.4176653197389
 30
0.0
  0
POINT
  5
8492
330
8423
100
AcDbEntity
  8
DEFPOINTS
 62
     0
100
AcDbPoint
 10
1327.951634110773
 20
151.4176333197281
 30
0.0
  0
POINT
  5
8493
330
8423
100
AcDbEntity
  8
DEFPOINTS
 62
     0
100
AcDbPoint
 10
1324.652218809366
 20
151.4176333197281
 30
0.0
  0
ENDBLK
  5
8425
330
8423
100
AcDbEntity
  8
0
100
AcDbBlockEnd
  0
BLOCK
  5
8431
330
8430
100
AcDbEntity
  8
0
100
AcDbBlockBegin
  2
*D363
 70
     1
 10
0.0
 20
0.0
 30
0.0
  3
*D363
  1

  0
LINE
  5
8494
330
8430
100
AcDbEntity
  8
标注
370
    -2
100
AcDbLine
 10
1326.677934110773
 20
134.4176673197396
 30
0.0
 11
1322.552290017157
 21
134.4176673197396
 31
0.0
  0
LINE
  5
8495
330
8430
100
AcDbEntity
  8
标注
370
    -2
100
AcDbLine
 10
1326.677934110773
 20
152.4176313197274
 30
0.0
 11
1322.552290017157
 21
152.4176313197274
 31
0.0
  0
LINE
  5
8496
330
8430
100
AcDbEntity
  8
标注
370
    -2
100
AcDbLine
 10
1322.872290017157
 20
135.0676673197396
 30
0.0
 11
1322.872290017157
 21
142.5221854725302
 31
0.0
  0
LINE
  5
8497
330
8430
100
AcDbEntity
  8
标注
370
    -2
100
AcDbLine
 10
1322.872290017157
 20
151.7676313197274
 30
0.0
 11
1322.872290017157
 21
144.3131131669368
 31
0.0
  0
SOLID
  5
8498
330
8430
100
AcDbEntity
  8
标注
100
AcDbTrace
 10
1322.763956683824
 20
135.0676673197396
 30
0.0
 11
1322.980623350491
 21
135.0676673197396
 31
0.0
 12
1322.872290017157
 22
134.4176673197396
 32
0.0
 13
1322.872290017157
 23
134.4176673197396
 33
0.0
  0
SOLID
  5
8499
330
8430
100
AcDbEntity
  8
标注
100
AcDbTrace
 10
1322.763956683824
 20
151.7676313197274
 30
0.0
 11
1322.980623350491
 21
151.7676313197274
 31
0.0
 12
1322.872290017157
 22
152.4176313197274
 32
0.0
 13
1322.872290017157
 23
152.4176313197274
 33
0.0
  0
MTEXT
  5
849A
330
8430
100
AcDbEntity
  8
标注
100
AcDbMText
 10
1322.872290017157
 20
143.4176493197337
 30
0.0
 40
0.65
 41
0.0
 71
     5
 72
     1
  1
\A1;18"
 11
0.0000000000000001
 21
1.0
 31
0.0
 73
     1
 44
1.0
1001
ACAD
1000
MTEXTBEGIN
1070
    73
1070
     1
1070
    44
1040
1.0
1070
    74
1070
     0
1000
MTEXTEND
  0
POINT
  5
849B
330
8430
100
AcDbEntity
  8
DEFPOINTS
 62
     0
100
AcDbPoint
 10
1327.557934110773
 20
134.4176673197396
 30
0.0
  0
POINT
  5
849C
330
8430
100
AcDbEntity
  8
DEFPOINTS
 62
     0
100
AcDbPoint
 10
1327.557934110773
 20
152.4176313197274
 30
0.0
  0
POINT
  5
849D
330
8430
100
AcDbEntity
  8
DEFPOINTS
 62
     0
100
AcDbPoint
 10
1322.872290017157
 20
152.4176313197274
 30
0.0
  0
ENDBLK
  5
8432
330
8430
100
AcDbEntity
  8
0
100
AcDbBlockEnd
  0
BLOCK
  5
843E
330
843D
100
AcDbEntity
  8
0
100
AcDbBlockBegin
  2
*D364
 70
     1
 10
0.0
 20
0.0
 30
0.0
  3
*D364
  1

  0
LINE
  5
849E
330
843D
100
AcDbEntity
  8
标注
370
    -2
100
AcDbLine
 10
1358.557872110773
 20
134.4707363197311
 30
0.0
 11
1358.557872110773
 21
130.2417782770771
 31
0.0
  0
LINE
  5
849F
330
843D
100
AcDbEntity
  8
标注
370
    -2
100
AcDbLine
 10
1326.557936110773
 20
134.5376653197389
 30
0.0
 11
1326.557936110773
 21
130.2417782770771
 31
0.0
  0
LINE
  5
84A0
330
843D
100
AcDbEntity
  8
标注
370
    -2
100
AcDbLine
 10
1357.907872110773
 20
130.5617782770771
 30
0.0
 11
1343.483739717867
 21
130.5617782770771
 31
0.0
  0
LINE
  5
84A1
330
843D
100
AcDbEntity
  8
标注
370
    -2
100
AcDbLine
 10
1327.207936110773
 20
130.5617782770771
 30
0.0
 11
1341.632068503679
 21
130.5617782770771
 31
0.0
  0
SOLID
  5
84A2
330
843D
100
AcDbEntity
  8
标注
100
AcDbTrace
 10
1357.907872110773
 20
130.6701116104104
 30
0.0
 11
1357.907872110773
 21
130.4534449437438
 31
0.0
 12
1358.557872110773
 22
130.5617782770771
 32
0.0
 13
1358.557872110773
 23
130.5617782770771
 33
0.0
  0
SOLID
  5
84A3
330
843D
100
AcDbEntity
  8
标注
100
AcDbTrace
 10
1327.207936110773
 20
130.6701116104104
 30
0.0
 11
1327.207936110773
 21
130.4534449437438
 31
0.0
 12
1326.557936110773
 22
130.5617782770771
 32
0.0
 13
1326.557936110773
 23
130.5617782770771
 33
0.0
  0
MTEXT
  5
84A4
330
843D
100
AcDbEntity
  8
标注
100
AcDbMText
 10
1342.557904110773
 20
130.5617782770771
 30
0.0
 40
0.65
 41
0.0
 71
     5
 72
     1
  1
\A1;32"
 73
     1
 44
1.0
1001
ACAD
1000
MTEXTBEGIN
1070
    73
1070
     1
1070
    44
1040
1.0
1070
    74
1070
     0
1000
MTEXTEND
  0
POINT
  5
84A5
330
843D
100
AcDbEntity
  8
DEFPOINTS
 62
     0
100
AcDbPoint
 10
1358.557872110773
 20
135.3507363197311
 30
0.0
  0
POINT
  5
84A6
330
843D
100
AcDbEntity
  8
DEFPOINTS
 62
     0
100
AcDbPoint
 10
1326.557936110773
 20
135.4176653197389
 30
0.0
  0
POINT
  5
84A7
330
843D
100
AcDbEntity
  8
DEFPOINTS
 62
     0
100
AcDbPoint
 10
1326.557936110773
 20
130.5617782770771
 30
0.0
  0
ENDBLK
  5
843F
330
843D
100
AcDbEntity
  8
0
100
AcDbBlockEnd
  0
BLOCK
  5
844B
330
844A
100
AcDbEntity
  8
0
100
AcDbBlockBegin
  2
*D365
 70
     1
 10
0.0
 20
0.0
 30
0.0
  3
*D365
  1

  0
LINE
  5
84A8
330
844A
100
AcDbEntity
  8
标注
370
    -2
100
AcDbLine
 10
1359.43787211078
 20
176.7614230440704
 30
0.0
 11
1360.885674223908
 21
176.7614230440704
 31
0.0
  0
LINE
  5
84A9
330
844A
100
AcDbEntity
  8
标注
370
    -2
100
AcDbLine
 10
1359.012405949394
 20
166.8077030440654
 30
0.0
 11
1360.885674223908
 21
166.8077030440654
 31
0.0
  0
LINE
  5
84AA
330
844A
100
AcDbEntity
  8
标注
370
    -2
100
AcDbLine
 10
1360.565674223908
 20
176.1114230440704
 30
0.0
 11
1360.565674223908
 21
172.6800268912711
 31
0.0
  0
LINE
  5
84AB
330
844A
100
AcDbEntity
  8
标注
370
    -2
100
AcDbLine
 10
1360.565674223908
 20
167.4577030440654
 30
0.0
 11
1360.565674223908
 21
170.8890991968646
 31
0.0
  0
SOLID
  5
84AC
330
844A
100
AcDbEntity
  8
标注
100
AcDbTrace
 10
1360.457340890575
 20
176.1114230440704
 30
0.0
 11
1360.674007557242
 21
176.1114230440704
 31
0.0
 12
1360.565674223908
 22
176.7614230440704
 32
0.0
 13
1360.565674223908
 23
176.7614230440704
 33
0.0
  0
SOLID
  5
84AD
330
844A
100
AcDbEntity
  8
标注
100
AcDbTrace
 10
1360.457340890575
 20
167.4577030440654
 30
0.0
 11
1360.674007557242
 21
167.4577030440654
 31
0.0
 12
1360.565674223908
 22
166.8077030440654
 32
0.0
 13
1360.565674223908
 23
166.8077030440654
 33
0.0
  0
MTEXT
  5
84AE
330
844A
100
AcDbEntity
  8
标注
100
AcDbMText
 10
1360.565674223908
 20
171.7845630440681
 30
0.0
 40
0.65
 41
0.0
 71
     5
 72
     1
  1
\A1;10"
 11
0.0000000000000001
 21
1.0
 31
0.0
 73
     1
 44
1.0
1001
ACAD
1000
MTEXTBEGIN
1070
    73
1070
     1
1070
    44
1040
1.0
1070
    74
1070
     0
1000
MTEXTEND
  0
POINT
  5
84AF
330
844A
100
AcDbEntity
  8
DEFPOINTS
 62
     0
100
AcDbPoint
 10
1358.55787211078
 20
176.7614230440704
 30
0.0
  0
POINT
  5
84B0
330
844A
100
AcDbEntity
  8
DEFPOINTS
 62
     0
100
AcDbPoint
 10
1358.132405949393
 20
166.8077030440654
 30
0.0
  0
POINT
  5
84B1
330
844A
100
AcDbEntity
  8
DEFPOINTS
 62
     0
100
AcDbPoint
 10
1360.565674223908
 20
166.8077030440654
 30
0.0
  0
ENDBLK
  5
844C
330
844A
100
AcDbEntity
  8
0
100
AcDbBlockEnd
  0
BLOCK
  5
8458
330
8457
100
AcDbEntity
  8
0
100
AcDbBlockBegin
  2
*D366
 70
     1
 10
0.0
 20
0.0
 30
0.0
  3
*D366
  1

  0
LINE
  5
84B2
330
8457
100
AcDbEntity
  8
标注
370
    -2
100
AcDbLine
 10
1325.677936110773
 20
176.7614230440704
 30
0.0
 11
1324.741838877659
 21
176.7614230440704
 31
0.0
  0
LINE
  5
84B3
330
8457
100
AcDbEntity
  8
标注
370
    -2
100
AcDbLine
 10
1326.122166523863
 20
168.8076990440682
 30
0.0
 11
1324.741838877659
 21
168.8076990440682
 31
0.0
  0
LINE
  5
84B4
330
8457
100
AcDbEntity
  8
标注
370
    -2
100
AcDbLine
 10
1325.061838877659
 20
176.1114230440704
 30
0.0
 11
1325.061838877659
 21
173.4585549049151
 31
0.0
  0
LINE
  5
84B5
330
8457
100
AcDbEntity
  8
标注
370
    -2
100
AcDbLine
 10
1325.061838877659
 20
169.4576990440683
 30
0.0
 11
1325.061838877659
 21
172.1105671832235
 31
0.0
  0
SOLID
  5
84B6
330
8457
100
AcDbEntity
  8
标注
100
AcDbTrace
 10
1324.953505544325
 20
176.1114230440704
 30
0.0
 11
1325.170172210992
 21
176.1114230440704
 31
0.0
 12
1325.061838877659
 22
176.7614230440704
 32
0.0
 13
1325.061838877659
 23
176.7614230440704
 33
0.0
  0
SOLID
  5
84B7
330
8457
100
AcDbEntity
  8
标注
100
AcDbTrace
 10
1324.953505544325
 20
169.4576990440683
 30
0.0
 11
1325.170172210992
 21
169.4576990440683
 31
0.0
 12
1325.061838877659
 22
168.8076990440682
 32
0.0
 13
1325.061838877659
 23
168.8076990440682
 33
0.0
  0
MTEXT
  5
84B8
330
8457
100
AcDbEntity
  8
标注
100
AcDbMText
 10
1325.061838877659
 20
172.7845610440695
 30
0.0
 40
0.65
 41
0.0
 71
     5
 72
     1
  1
\A1;8"
 11
0.0000000000000001
 21
1.0
 31
0.0
 73
     1
 44
1.0
1001
ACAD
1000
MTEXTBEGIN
1070
    73
1070
     1
1070
    44
1040
1.0
1070
    74
1070
     0
1000
MTEXTEND
  0
POINT
  5
84B9
330
8457
100
AcDbEntity
  8
DEFPOINTS
 62
     0
100
AcDbPoint
 10
1326.557936110773
 20
176.7614230440704
 30
0.0
  0
POINT
  5
84BA
330
8457
100
AcDbEntity
  8
DEFPOINTS
 62
     0
100
AcDbPoint
 10
1327.002166523863
 20
168.8076990440682
 30
0.0
  0
POINT
  5
84BB
330
8457
100
AcDbEntity
  8
DEFPOINTS
 62
     0
100
AcDbPoint
 10
1325.061838877659
 20
168.8076990440682
 30
0.0
  0
ENDBLK
  5
8459
330
8457
100
AcDbEntity
  8
0
100
AcDbBlockEnd
  0
BLOCK
  5
8465
330
8464
100
AcDbEntity
  8
0
100
AcDbBlockBegin
  2
*D367
 70
     1
 10
0.0
 20
0.0
 30
0.0
  3
*D367
  1

  0
LINE
  5
84BC
330
8464
100
AcDbEntity
  8
标注
370
    -2
100
AcDbLine
 10
1358.027031163122
 20
166.7048194176279
 30
0.0
 11
1358.564405010034
 21
166.339129181697
 31
0.0
  0
MTEXT
  5
84BD
330
8464
100
AcDbEntity
  8
标注
100
AcDbMText
 10
1356.438021908683
 20
168.2574425976964
 30
0.0
 40
0.65
 41
0.0
 71
     5
 72
     1
  1
\A1;R3/8"
 11
0.8267289952487473
 21
-0.5626003629709074
 31
0.0
 73
     1
 44
1.0
1001
ACAD
1000
MTEXTBEGIN
1070
    73
1070
     1
1070
    44
1040
1.0
1070
    74
1070
     0
1000
MTEXTEND
  0
LINE
  5
84BE
330
8464
100
AcDbEntity
  8
标注
370
    -2
100
AcDbLine
 10
1357.164174110781
 20
167.2920054164607
 30
0.0
 11
1357.48965731621
 21
167.0705096535589
 31
0.0
  0
SOLID
  5
84BF
330
8464
100
AcDbEntity
  8
标注
100
AcDbTrace
 10
1358.087979535777
 20
166.7943817254465
 30
0.0
 11
1357.966082790467
 21
166.6152571098092
 31
0.0
 12
1357.48965731621
 22
167.0705096535589
 32
0.0
 13
1357.48965731621
 23
167.0705096535589
 33
0.0
  0
ARC
  5
84C0
330
8464
100
AcDbEntity
  8
标注
370
    -2
100
AcDbCircle
 10
1357.164174110781
 20
167.2920054164607
 30
0.0
 40
0.3936999999998534
100
AcDbArc
 50
268.1721843348532
 51
12.33428111394283
  0
POINT
  5
84C1
330
8464
100
AcDbEntity
  8
DEFPOINTS
 62
     0
100
AcDbPoint
 10
1357.48965731621
 20
167.0705096535589
 30
0.0
  0
POINT
  5
84C2
330
8464
100
AcDbEntity
  8
DEFPOINTS
 62
     0
100
AcDbPoint
 10
1357.164174110781
 20
167.2920054164607
 30
0.0
  0
ENDBLK
  5
8466
330
8464
100
AcDbEntity
  8
0
100
AcDbBlockEnd
  0
BLOCK
  5
846E
330
846D
100
AcDbEntity
  8
0
100
AcDbBlockBegin
  2
*D368
 70
     1
 10
0.0
 20
0.0
 30
0.0
  3
*D368
  1

  0
LINE
  5
84C3
330
846D
100
AcDbEntity
  8
标注
370
    -2
100
AcDbLine
 10
1357.871672932962
 20
135.0440615294437
 30
0.0
 11
1358.312292109375
 21
134.5661967563363
 31
0.0
  0
MTEXT
  5
84C4
330
846D
100
AcDbEntity
  8
标注
100
AcDbMText
 10
1356.596545847498
 20
137.0259860166479
 30
0.0
 40
0.65
 41
0.0
 71
     5
 72
     1
  1
\A1;R3/8"
 11
0.6778756560202821
 21
-0.7351765740113543
 31
0.0
 73
     1
 44
1.0
1001
ACAD
1000
MTEXTBEGIN
1070
    73
1070
     1
1070
    44
1040
1.0
1070
    74
1070
     0
1000
MTEXTEND
  0
LINE
  5
84C5
330
846D
100
AcDbEntity
  8
标注
370
    -2
100
AcDbLine
 10
1357.164174110773
 20
135.8113653197393
 30
0.0
 11
1357.431053756548
 21
135.5219263025511
 31
0.0
  0
SOLID
  5
84C6
330
846D
100
AcDbEntity
  8
标注
100
AcDbTrace
 10
1357.951317061813
 20
135.1174980588459
 30
0.0
 11
1357.79202880411
 21
134.9706250000415
 31
0.0
 12
1357.431053756548
 22
135.5219263025511
 32
0.0
 13
1357.431053756548
 23
135.5219263025511
 33
0.0
  0
ARC
  5
84C7
330
846D
100
AcDbEntity
  8
标注
370
    -2
100
AcDbCircle
 10
1357.164174110773
 20
135.8113653197393
 30
0.0
 40
0.3936999999999671
100
AcDbArc
 50
269.9999999999999
 51
359.2479642448704
  0
POINT
  5
84C8
330
846D
100
AcDbEntity
  8
DEFPOINTS
 62
     0
100
AcDbPoint
 10
1357.431053756548
 20
135.5219263025511
 30
0.0
  0
POINT
  5
84C9
330
846D
100
AcDbEntity
  8
DEFPOINTS
 62
     0
100
AcDbPoint
 10
1357.164174110773
 20
135.8113653197393
 30
0.0
  0
ENDBLK
  5
846F
330
846D
100
AcDbEntity
  8
0
100
AcDbBlockEnd
  0
BLOCK
  5
84D5
330
84D4
100
AcDbEntity
  8
0
100
AcDbBlockBegin
  2
*D369
 70
     1
 10
0.0
 20
0.0
 30
0.0
  3
*D369
  1

  0
LINE
  5
8578
330
84D4
100
AcDbEntity
  8
标注
370
    -2
100
AcDbLine
 10
1327.479279065932
 20
103.6749508948641
 30
0.0
 11
1327.479279065932
 21
101.3984338723258
 31
0.0
  0
LINE
  5
8579
330
84D4
100
AcDbEntity
  8
标注
370
    -2
100
AcDbLine
 10
1357.636699065935
 20
103.6749508948641
 30
0.0
 11
1357.636699065935
 21
101.3984338723258
 31
0.0
  0
LINE
  5
857A
330
84D4
100
AcDbEntity
  8
标注
370
    -2
100
AcDbLine
 10
1328.129279065932
 20
101.7184338723259
 30
0.0
 11
1340.87485468667
 21
101.7184338723259
 31
0.0
  0
LINE
  5
857B
330
84D4
100
AcDbEntity
  8
标注
370
    -2
100
AcDbLine
 10
1356.986699065935
 20
101.7184338723259
 30
0.0
 11
1344.241123445197
 21
101.7184338723259
 31
0.0
  0
SOLID
  5
857C
330
84D4
100
AcDbEntity
  8
标注
100
AcDbTrace
 10
1328.129279065932
 20
101.8267672056592
 30
0.0
 11
1328.129279065932
 21
101.6101005389925
 31
0.0
 12
1327.479279065932
 22
101.7184338723259
 32
0.0
 13
1327.479279065932
 23
101.7184338723259
 33
0.0
  0
SOLID
  5
857D
330
84D4
100
AcDbEntity
  8
标注
100
AcDbTrace
 10
1356.986699065935
 20
101.8267672056592
 30
0.0
 11
1356.986699065935
 21
101.6101005389925
 31
0.0
 12
1357.636699065935
 22
101.7184338723259
 32
0.0
 13
1357.636699065935
 23
101.7184338723259
 33
0.0
  0
MTEXT
  5
857E
330
84D4
100
AcDbEntity
  8
标注
100
AcDbMText
 10
1342.557989065934
 20
101.7184338723259
 30
0.0
 40
0.65
 41
0.0
 71
     5
 72
     1
  1
\A1;30 1/8"
 73
     1
 44
1.0
1001
ACAD
1000
MTEXTBEGIN
1070
    73
1070
     1
1070
    44
1040
1.0
1070
    74
1070
     0
1000
MTEXTEND
  0
POINT
  5
857F
330
84D4
100
AcDbEntity
  8
DEFPOINTS
 62
     0
100
AcDbPoint
 10
1327.479279065932
 20
104.5549508948641
 30
0.0
  0
POINT
  5
8580
330
84D4
100
AcDbEntity
  8
DEFPOINTS
 62
     0
100
AcDbPoint
 10
1357.636699065935
 20
104.5549508948641
 30
0.0
  0
POINT
  5
8581
330
84D4
100
AcDbEntity
  8
DEFPOINTS
 62
     0
100
AcDbPoint
 10
1357.636699065935
 20
101.7184338723259
 30
0.0
  0
ENDBLK
  5
84D6
330
84D4
100
AcDbEntity
  8
0
100
AcDbBlockEnd
  0
BLOCK
  5
84E2
330
84E1
100
AcDbEntity
  8
0
100
AcDbBlockBegin
  2
*D370
 70
     1
 10
0.0
 20
0.0
 30
0.0
  3
*D370
  1

  0
LINE
  5
8582
330
84E1
100
AcDbEntity
  8
标注
370
    -2
100
AcDbLine
 10
1358.044259065938
 20
104.0825108948663
 30
0.0
 11
1360.362019634844
 21
104.0825108948663
 31
0.0
  0
LINE
  5
8583
330
84E1
100
AcDbEntity
  8
标注
370
    -2
100
AcDbLine
 10
1358.044259065938
 20
120.2399588948644
 30
0.0
 11
1360.362019634844
 21
120.2399588948644
 31
0.0
  0
LINE
  5
8584
330
84E1
100
AcDbEntity
  8
标注
370
    -2
100
AcDbLine
 10
1360.042019634844
 20
104.7325108948663
 30
0.0
 11
1360.042019634844
 21
110.508472275493
 31
0.0
  0
LINE
  5
8585
330
84E1
100
AcDbEntity
  8
标注
370
    -2
100
AcDbLine
 10
1360.042019634844
 20
119.5899588948645
 30
0.0
 11
1360.042019634844
 21
113.8139975142378
 31
0.0
  0
SOLID
  5
8586
330
84E1
100
AcDbEntity
  8
标注
100
AcDbTrace
 10
1359.933686301511
 20
104.7325108948663
 30
0.0
 11
1360.150352968177
 21
104.7325108948663
 31
0.0
 12
1360.042019634844
 22
104.0825108948663
 32
0.0
 13
1360.042019634844
 23
104.0825108948663
 33
0.0
  0
SOLID
  5
8587
330
84E1
100
AcDbEntity
  8
标注
100
AcDbTrace
 10
1359.933686301511
 20
119.5899588948645
 30
0.0
 11
1360.150352968177
 21
119.5899588948645
 31
0.0
 12
1360.042019634844
 22
120.2399588948644
 32
0.0
 13
1360.042019634844
 23
120.2399588948644
 33
0.0
  0
MTEXT
  5
8588
330
84E1
100
AcDbEntity
  8
标注
100
AcDbMText
 10
1360.042019634844
 20
112.1612348948656
 30
0.0
 40
0.65
 41
0.0
 71
     5
 72
     1
  1
\A1;16 1/8"
 11
0.0000000000000001
 21
1.0
 31
0.0
 73
     1
 44
1.0
1001
ACAD
1000
MTEXTBEGIN
1070
    73
1070
     1
1070
    44
1040
1.0
1070
    74
1070
     0
1000
MTEXTEND
  0
POINT
  5
8589
330
84E1
100
AcDbEntity
  8
DEFPOINTS
 62
     0
100
AcDbPoint
 10
1357.164259065937
 20
104.0825108948663
 30
0.0
  0
POINT
  5
858A
330
84E1
100
AcDbEntity
  8
DEFPOINTS
 62
     0
100
AcDbPoint
 10
1357.164259065937
 20
120.2399588948644
 30
0.0
  0
POINT
  5
858B
330
84E1
100
AcDbEntity
  8
DEFPOINTS
 62
     0
100
AcDbPoint
 10
1360.042019634844
 20
120.2399588948644
 30
0.0
  0
ENDBLK
  5
84E3
330
84E1
100
AcDbEntity
  8
0
100
AcDbBlockEnd
  0
BLOCK
  5
8507
330
8506
100
AcDbEntity
  8
0
100
AcDbBlockBegin
  2
*D371
 70
     1
 10
0.0
 20
0.0
 30
0.0
  3
*D371
  1

  0
LINE
  5
8520
330
8506
100
AcDbEntity
  8
标注
370
    -2
100
AcDbLine
 10
1358.04417411078
 20
135.4176653197389
 30
0.0
 11
1360.783589412187
 21
135.4176653197389
 31
0.0
  0
LINE
  5
8521
330
8506
100
AcDbEntity
  8
标注
370
    -2
100
AcDbLine
 10
1358.04417411078
 20
151.4176333197281
 30
0.0
 11
1360.783589412187
 21
151.4176333197281
 31
0.0
  0
LINE
  5
8522
330
8506
100
AcDbEntity
  8
标注
370
    -2
100
AcDbLine
 10
1360.463589412187
 20
136.0676653197389
 30
0.0
 11
1360.463589412187
 21
142.5221854725302
 31
0.0
  0
LINE
  5
8523
330
8506
100
AcDbEntity
  8
标注
370
    -2
100
AcDbLine
 10
1360.463589412187
 20
150.7676333197281
 30
0.0
 11
1360.463589412187
 21
144.3131131669368
 31
0.0
  0
SOLID
  5
8524
330
8506
100
AcDbEntity
  8
标注
100
AcDbTrace
 10
1360.355256078854
 20
136.0676653197389
 30
0.0
 11
1360.57192274552
 21
136.0676653197389
 31
0.0
 12
1360.463589412187
 22
135.4176653197389
 32
0.0
 13
1360.463589412187
 23
135.4176653197389
 33
0.0
  0
SOLID
  5
8525
330
8506
100
AcDbEntity
  8
标注
100
AcDbTrace
 10
1360.355256078854
 20
150.7676333197281
 30
0.0
 11
1360.57192274552
 21
150.7676333197281
 31
0.0
 12
1360.463589412187
 22
151.4176333197281
 32
0.0
 13
1360.463589412187
 23
151.4176333197281
 33
0.0
  0
MTEXT
  5
8526
330
8506
100
AcDbEntity
  8
标注
100
AcDbMText
 10
1360.463589412187
 20
143.4176493197337
 30
0.0
 40
0.65
 41
0.0
 71
     5
 72
     1
  1
\A1;16"
 11
0.0000000000000001
 21
1.0
 31
0.0
 73
     1
 44
1.0
1001
ACAD
1000
MTEXTBEGIN
1070
    73
1070
     1
1070
    44
1040
1.0
1070
    74
1070
     0
1000
MTEXTEND
  0
POINT
  5
8527
330
8506
100
AcDbEntity
  8
DEFPOINTS
 62
     0
100
AcDbPoint
 10
1357.16417411078
 20
135.4176653197389
 30
0.0
  0
POINT
  5
8528
330
8506
100
AcDbEntity
  8
DEFPOINTS
 62
     0
100
AcDbPoint
 10
1357.16417411078
 20
151.4176333197281
 30
0.0
  0
POINT
  5
8529
330
8506
100
AcDbEntity
  8
DEFPOINTS
 62
     0
100
AcDbPoint
 10
1360.463589412187
 20
151.4176333197281
 30
0.0
  0
ENDBLK
  5
8508
330
8506
100
AcDbEntity
  8
0
100
AcDbBlockEnd
  0
BLOCK
  5
8514
330
8513
100
AcDbEntity
  8
0
100
AcDbBlockBegin
  2
*D372
 70
     1
 10
0.0
 20
0.0
 30
0.0
  3
*D372
  1

  0
LINE
  5
852A
330
8513
100
AcDbEntity
  8
标注
370
    -2
100
AcDbLine
 10
1358.43787411078
 20
134.4176673197396
 30
0.0
 11
1362.563518204396
 21
134.4176673197396
 31
0.0
  0
LINE
  5
852B
330
8513
100
AcDbEntity
  8
标注
370
    -2
100
AcDbLine
 10
1358.43787411078
 20
152.4176313197274
 30
0.0
 11
1362.563518204396
 21
152.4176313197274
 31
0.0
  0
LINE
  5
852C
330
8513
100
AcDbEntity
  8
标注
370
    -2
100
AcDbLine
 10
1362.243518204396
 20
135.0676673197396
 30
0.0
 11
1362.243518204396
 21
142.5221854725302
 31
0.0
  0
LINE
  5
852D
330
8513
100
AcDbEntity
  8
标注
370
    -2
100
AcDbLine
 10
1362.243518204396
 20
151.7676313197274
 30
0.0
 11
1362.243518204396
 21
144.3131131669368
 31
0.0
  0
SOLID
  5
852E
330
8513
100
AcDbEntity
  8
标注
100
AcDbTrace
 10
1362.135184871062
 20
135.0676673197396
 30
0.0
 11
1362.351851537729
 21
135.0676673197396
 31
0.0
 12
1362.243518204396
 22
134.4176673197396
 32
0.0
 13
1362.243518204396
 23
134.4176673197396
 33
0.0
  0
SOLID
  5
852F
330
8513
100
AcDbEntity
  8
标注
100
AcDbTrace
 10
1362.135184871062
 20
151.7676313197274
 30
0.0
 11
1362.351851537729
 21
151.7676313197274
 31
0.0
 12
1362.243518204396
 22
152.4176313197274
 32
0.0
 13
1362.243518204396
 23
152.4176313197274
 33
0.0
  0
MTEXT
  5
8530
330
8513
100
AcDbEntity
  8
标注
100
AcDbMText
 10
1362.243518204396
 20
143.4176493197337
 30
0.0
 40
0.65
 41
0.0
 71
     5
 72
     1
  1
\A1;18"
 11
0.0000000000000001
 21
1.0
 31
0.0
 73
     1
 44
1.0
1001
ACAD
1000
MTEXTBEGIN
1070
    73
1070
     1
1070
    44
1040
1.0
1070
    74
1070
     0
1000
MTEXTEND
  0
POINT
  5
8531
330
8513
100
AcDbEntity
  8
DEFPOINTS
 62
     0
100
AcDbPoint
 10
1357.55787411078
 20
134.4176673197396
 30
0.0
  0
POINT
  5
8532
330
8513
100
AcDbEntity
  8
DEFPOINTS
 62
     0
100
AcDbPoint
 10
1357.55787411078
 20
152.4176313197274
 30
0.0
  0
POINT
  5
8533
330
8513
100
AcDbEntity
  8
DEFPOINTS
 62
     0
100
AcDbPoint
 10
1362.243518204396
 20
152.4176313197274
 30
0.0
  0
ENDBLK
  5
8515
330
8513
100
AcDbEntity
  8
0
100
AcDbBlockEnd
  0
BLOCK
  5
8544
330
8543
100
AcDbEntity
  8
0
100
AcDbBlockBegin
  2
*D373
 70
     1
 10
0.0
 20
0.0
 30
0.0
  3
*D373
  1

  0
LINE
  5
858C
330
8543
100
AcDbEntity
  8
标注
370
    -2
100
AcDbLine
 10
1327.253315631416
 20
103.6762562970376
 30
0.0
 11
1326.848873316068
 21
103.1674081727842
 31
0.0
  0
MTEXT
  5
858D
330
8543
100
AcDbEntity
  8
标注
100
AcDbMText
 10
1328.410811814514
 20
105.6648430557718
 30
0.0
 40
0.65
 41
0.0
 71
     5
 72
     1
  1
\A1;R1/2"
 11
0.6222189466886066
 21
0.7828432680822653
 31
0.0
 73
     1
 44
1.0
1001
ACAD
1000
MTEXTBEGIN
1070
    73
1070
     1
1070
    44
1040
1.0
1070
    74
1070
     0
1000
MTEXTEND
  0
LINE
  5
858E
330
8543
100
AcDbEntity
  8
标注
370
    -2
100
AcDbLine
 10
1327.951719065937
 20
104.5549508948639
 30
0.0
 11
1327.657757946763
 21
104.1851044212911
 31
0.0
  0
SOLID
  5
858F
330
8543
100
AcDbEntity
  8
标注
100
AcDbTrace
 10
1327.168507610707
 20
103.7436633495956
 30
0.0
 11
1327.338123652125
 21
103.6088492444797
 31
0.0
 12
1327.657757946763
 22
104.1851044212911
 32
0.0
 13
1327.657757946763
 23
104.1851044212911
 33
0.0
  0
POINT
  5
8590
330
8543
100
AcDbEntity
  8
DEFPOINTS
 62
     0
100
AcDbPoint
 10
1327.657757946763
 20
104.1851044212911
 30
0.0
  0
POINT
  5
8591
330
8543
100
AcDbEntity
  8
DEFPOINTS
 62
     0
100
AcDbPoint
 10
1327.951719065937
 20
104.5549508948639
 30
0.0
  0
ENDBLK
  5
8545
330
8543
100
AcDbEntity
  8
0
100
AcDbBlockEnd
  0
BLOCK
  5
854E
330
854D
100
AcDbEntity
  8
0
100
AcDbBlockBegin
  2
*D374
 70
     1
 10
0.0
 20
0.0
 30
0.0
  3
*D374
  1

  0
LINE
  5
8550
330
854D
100
AcDbEntity
  8
标注
370
    -2
100
AcDbLine
 10
1327.354709909233
 20
134.9552162745285
 30
0.0
 11
1326.982954873302
 21
134.4220200693095
 31
0.0
  0
MTEXT
  5
8551
330
854D
100
AcDbEntity
  8
标注
100
AcDbMText
 10
1328.408682626187
 20
137.1794756043873
 30
0.0
 40
0.65
 41
0.0
 71
     5
 72
     1
  1
\A1;R3/8"
 11
0.5719308245091268
 21
0.8203018541831479
 31
0.0
 73
     1
 44
1.0
1001
ACAD
1000
MTEXTBEGIN
1070
    73
1070
     1
1070
    44
1040
1.0
1070
    74
1070
     0
1000
MTEXTEND
  0
LINE
  5
8552
330
854D
100
AcDbEntity
  8
标注
370
    -2
100
AcDbLine
 10
1327.951634110773
 20
135.8113653197393
 30
0.0
 11
1327.726464945164
 21
135.4884124797476
 31
0.0
  0
SOLID
  5
8553
330
854D
100
AcDbEntity
  8
标注
100
AcDbTrace
 10
1327.26584387503
 20
135.0171754471837
 30
0.0
 11
1327.443575943436
 21
134.8932571018733
 31
0.0
 12
1327.726464945164
 22
135.4884124797476
 32
0.0
 13
1327.726464945164
 23
135.4884124797476
 33
0.0
  0
POINT
  5
8554
330
854D
100
AcDbEntity
  8
DEFPOINTS
 62
     0
100
AcDbPoint
 10
1327.726464945164
 20
135.4884124797476
 30
0.0
  0
POINT
  5
8555
330
854D
100
AcDbEntity
  8
DEFPOINTS
 62
     0
100
AcDbPoint
 10
1327.951634110773
 20
135.8113653197393
 30
0.0
  0
ENDBLK
  5
854F
330
854D
100
AcDbEntity
  8
0
100
AcDbBlockEnd
  0
BLOCK
  5
8558
330
8557
100
AcDbEntity
  8
0
100
AcDbBlockBegin
  2
*D375
 70
     1
 10
0.0
 20
0.0
 30
0.0
  3
*D375
  1

  0
LINE
  5
855A
330
8557
100
AcDbEntity
  8
标注
370
    -2
100
AcDbLine
 10
1338.068933001464
 20
135.2544207264659
 30
0.0
 11
1337.519214288179
 21
134.9075643638829
 31
0.0
  0
MTEXT
  5
855B
330
8557
100
AcDbEntity
  8
标注
100
AcDbMText
 10
1339.647745716931
 20
136.7688207237757
 30
0.0
 40
0.65
 41
0.0
 71
     5
 72
     1
  1
\A1;R3/8"
 11
0.8457210973614271
 21
0.5336251732047354
 31
0.0
 73
     1
 44
1.0
1001
ACAD
1000
MTEXTBEGIN
1070
    73
1070
     1
1070
    44
1040
1.0
1070
    74
1070
     0
1000
MTEXTEND
  0
LINE
  5
855C
330
8557
100
AcDbEntity
  8
标注
370
    -2
100
AcDbLine
 10
1338.951612110779
 20
135.8113653197392
 30
0.0
 11
1338.618651714749
 21
135.601277089049
 31
0.0
  0
SOLID
  5
855D
330
8557
100
AcDbEntity
  8
标注
100
AcDbTrace
 10
1338.0111236077
 20
135.3460405120134
 30
0.0
 11
1338.126742395228
 21
135.1628009409184
 31
0.0
 12
1338.618651714749
 22
135.601277089049
 32
0.0
 13
1338.618651714749
 23
135.601277089049
 33
0.0
  0
POINT
  5
855E
330
8557
100
AcDbEntity
  8
DEFPOINTS
 62
     0
100
AcDbPoint
 10
1338.618651714749
 20
135.601277089049
 30
0.0
  0
POINT
  5
855F
330
8557
100
AcDbEntity
  8
DEFPOINTS
 62
     0
100
AcDbPoint
 10
1338.951612110779
 20
135.8113653197392
 30
0.0
  0
ENDBLK
  5
8559
330
8557
100
AcDbEntity
  8
0
100
AcDbBlockEnd
  0
ENDSEC
  0
SECTION
  2
ENTITIES
  0
LINE
  5
8383
330
5F6E
100
AcDbEntity
  8
粗实线
100
AcDbLine
 10
1358.55787211078
 20
176.7614230440704
 30
0.0
 11
1357.675984110777
 21
176.7614230440704
 31
0.0
  0
LINE
  5
8384
330
5F6E
100
AcDbEntity
  8
虚线
 48
5.0
100
AcDbLine
 10
1357.557874110774
 20
176.6433130440746
 30
0.0
 11
1357.557874110774
 21
167.2920054164606
 31
0.0
  0
LINE
  5
8385
330
5F6E
100
AcDbEntity
  8
虚线
 48
5.0
100
AcDbLine
 10
1357.176731562299
 20
166.8985057335994
 30
0.0
 11
1350.414349105179
 21
166.6827030440799
 31
0.0
  0
ARC
  5
8386
330
5F6E
100
AcDbEntity
  8
虚线
 48
5.0
100
AcDbCircle
 10
1357.16417411078
 20
167.2920054164606
 30
0.0
 40
0.3937
100
AcDbArc
 50
271.8278156651468
 51
0.000000000000007
  0
LINE
  5
8387
330
5F6E
100
AcDbEntity
  8
虚线
 48
5.0
100
AcDbLine
 10
1338.557912110772
 20
167.2920054164751
 30
0.0
 11
1338.557912110779
 21
176.6433130440746
 31
0.0
  0
ARC
  5
8388
330
5F6E
100
AcDbEntity
  8
虚线
 48
5.0
100
AcDbCircle
 10
1338.951612110772
 20
167.2920054164751
 30
0.0
 40
0.3937
100
AcDbArc
 50
180.0
 51
268.1721843348532
  0
LINE
  5
8389
330
5F6E
100
AcDbEntity
  8
粗实线
100
AcDbLine
 10
1338.439802110776
 20
176.7614230440704
 30
0.0
 11
1337.676024110776
 21
176.7614230440704
 31
0.0
  0
LINE
  5
838A
330
5F6E
100
AcDbEntity
  8
0
100
AcDbLine
 10
1357.675984110777
 20
176.7614230440704
 30
0.0
 11
1338.439802110776
 21
176.7614230440704
 31
0.0
  0
LINE
  5
838B
330
5F6E
100
AcDbEntity
  8
虚线
 48
5.0
100
AcDbLine
 10
1350.341353110779
 20
166.6827030440654
 30
0.0
 11
1345.774433110774
 21
166.6827030440654
 31
0.0
  0
ARC
  5
838C
330
5F6E
100
AcDbEntity
  8
虚线
 48
5.0
100
AcDbCircle
 10
1350.414349105179
 20
166.5645930440696
 30
0.0
 40
0.11811
100
AcDbArc
 50
90.00000001042204
 51
153.4349489366501
  0
ARC
  5
838D
330
5F6E
100
AcDbEntity
  8
虚线
 48
5.0
100
AcDbCircle
 10
1345.701437116374
 20
166.5645930440696
 30
0.0
 40
0.11811
100
AcDbArc
 50
26.56505132361389
 51
90.0
  0
ARC
  5
838E
330
5F6E
100
AcDbEntity
  8
虚线
 48
5.0
100
AcDbCircle
 10
1350.186745113576
 20
166.505538044079
 30
0.0
 40
0.059055
100
AcDbArc
 50
270.000000052944
 51
333.4349483447186
  0
ARC
  5
838F
330
5F6E
100
AcDbEntity
  8
虚线
 48
5.0
100
AcDbCircle
 10
1345.929041107977
 20
166.505538044079
 30
0.0
 40
0.059055
100
AcDbArc
 50
206.5650522239086
 51
269.9999999470561
  0
LINE
  5
8390
330
5F6E
100
AcDbEntity
  8
虚线
 48
5.0
100
AcDbLine
 10
1345.876220710225
 20
166.4791278452067
 30
0.0
 11
1345.807077911907
 21
166.6174134418579
 31
0.0
  0
LINE
  5
8391
330
5F6E
100
AcDbEntity
  8
虚线
 48
5.0
100
AcDbLine
 10
1350.186745113576
 20
166.4464830440738
 30
0.0
 11
1349.829543110775
 21
166.4464830440738
 31
0.0
  0
LINE
  5
8392
330
5F6E
100
AcDbEntity
  8
虚线
 48
5.0
100
AcDbLine
 10
1346.286243110778
 20
166.3874280440686
 30
0.0
 11
1346.286243110778
 21
166.4464830440738
 31
0.0
  0
LINE
  5
8393
330
5F6E
100
AcDbEntity
  8
虚线
 48
5.0
100
AcDbLine
 10
1350.239565511327
 20
166.4791278452067
 30
0.0
 11
1350.308708309646
 21
166.6174134418579
 31
0.0
  0
LINE
  5
8394
330
5F6E
100
AcDbEntity
  8
虚线
 48
5.0
100
AcDbLine
 10
1349.829543110775
 20
166.3874280440686
 30
0.0
 11
1349.829543110775
 21
166.4464830440738
 31
0.0
  0
LINE
  5
8395
330
5F6E
100
AcDbEntity
  8
虚线
 48
5.0
100
AcDbLine
 10
1346.286243110778
 20
166.4464830440738
 30
0.0
 11
1345.929041107977
 21
166.4464830440738
 31
0.0
  0
LINE
  5
8396
330
5F6E
100
AcDbEntity
  8
虚线
 48
5.0
100
AcDbLine
 10
1349.829543110775
 20
166.4464830440738
 30
0.0
 11
1346.286243110778
 21
166.4464830440738
 31
0.0
  0
LINE
  5
8397
330
5F6E
100
AcDbEntity
  8
粗实线
100
AcDbLine
 10
1350.292385909094
 20
166.4527176463343
 30
0.0
 11
1350.361528707412
 21
166.591003242971
 31
0.0
  0
ARC
  5
8398
330
5F6E
100
AcDbEntity
  8
粗实线
100
AcDbCircle
 10
1350.414349105179
 20
166.5645930440696
 30
0.0
 40
0.059055
100
AcDbArc
 50
90.00000001042204
 51
153.4349489366501
  0
LINE
  5
8399
330
5F6E
100
AcDbEntity
  8
粗实线
100
AcDbLine
 10
1357.178522379464
 20
166.8381193344721
 30
0.0
 11
1350.414349105179
 21
166.6236480440748
 31
0.0
  0
ARC
  5
839A
330
5F6E
100
AcDbEntity
  8
粗实线
100
AcDbCircle
 10
1357.16417411078
 20
167.2906469217159
 30
0.0
 40
0.452755
100
AcDbArc
 50
271.816065881441
 51
0.000000000000007
  0
ARC
  5
839B
330
5F6E
100
AcDbEntity
  8
粗实线
100
AcDbCircle
 10
1350.186745113576
 20
166.505538044079
 30
0.0
 40
0.11811
100
AcDbArc
 50
270.000000052944
 51
333.4349483447186
  0
LINE
  5
839C
330
5F6E
100
AcDbEntity
  8
粗实线
100
AcDbLine
 10
1350.186745113576
 20
166.3874280440686
 30
0.0
 11
1349.829543110775
 21
166.3874280440686
 31
0.0
  0
LINE
  5
839D
330
5F6E
100
AcDbEntity
  8
粗实线
100
AcDbLine
 10
1349.829543110775
 20
166.3874280440686
 30
0.0
 11
1346.286243110778
 21
166.3874280440686
 31
0.0
  0
LINE
  5
839E
330
5F6E
100
AcDbEntity
  8
粗实线
100
AcDbLine
 10
1346.286243110778
 20
166.3874280440686
 30
0.0
 11
1345.929041107977
 21
166.3874280440686
 31
0.0
  0
ARC
  5
839F
330
5F6E
100
AcDbEntity
  8
粗实线
100
AcDbCircle
 10
1345.929041107977
 20
166.505538044079
 30
0.0
 40
0.11811
100
AcDbArc
 50
206.5650522239086
 51
269.9999999470561
  0
LINE
  5
83A0
330
5F6E
100
AcDbEntity
  8
粗实线
100
AcDbLine
 10
1345.823400312459
 20
166.4527176463343
 30
0.0
 11
1345.754257514141
 21
166.591003242971
 31
0.0
  0
ARC
  5
83A1
330
5F6E
100
AcDbEntity
  8
粗实线
100
AcDbCircle
 10
1345.701437116374
 20
166.5645930440696
 30
0.0
 40
0.059055
100
AcDbArc
 50
26.56505132361389
 51
90.0
  0
LINE
  5
83A2
330
5F6E
100
AcDbEntity
  8
粗实线
100
AcDbLine
 10
1338.498857110774
 20
167.2906469217159
 30
0.0
 11
1338.498857110774
 21
176.6433130440746
 31
0.0
  0
ARC
  5
83A3
330
5F6E
100
AcDbEntity
  8
粗实线
100
AcDbCircle
 10
1338.951612110772
 20
167.2906469217159
 30
0.0
 40
0.452755
100
AcDbArc
 50
180.0
 51
268.183934118559
  0
LINE
  5
83A4
330
5F6E
100
AcDbEntity
  8
粗实线
100
AcDbLine
 10
1338.439802110776
 20
176.7023680440652
 30
0.0
 11
1337.676024110776
 21
176.7023680440652
 31
0.0
  0
LINE
  5
83A5
330
5F6E
100
AcDbEntity
  8
粗实线
100
AcDbLine
 10
1358.55787211078
 20
176.7023680440652
 30
0.0
 11
1357.675984110777
 21
176.7023680440652
 31
0.0
  0
LINE
  5
83A6
330
5F6E
100
AcDbEntity
  8
粗实线
100
AcDbLine
 10
1357.616929110779
 20
176.6433130440746
 30
0.0
 11
1357.616929110779
 21
167.2906469217159
 31
0.0
  0
LINE
  5
83A7
330
5F6E
100
AcDbEntity
  8
粗实线
100
AcDbLine
 10
1358.55787211078
 20
176.7614230440704
 30
0.0
 11
1358.55787211078
 21
176.7023680440652
 31
0.0
  0
ARC
  5
83A8
330
5F6E
100
AcDbEntity
  8
虚线
 48
5.0
100
AcDbCircle
 10
1357.675984110777
 20
176.6433130440746
 30
0.0
 40
0.11811
100
AcDbArc
 50
90.0
 51
180.0
  0
ARC
  5
83A9
330
5F6E
100
AcDbEntity
  8
虚线
 48
5.0
100
AcDbCircle
 10
1338.439802110776
 20
176.6433130440746
 30
0.0
 40
0.11811
100
AcDbArc
 50
0.000000000000007
 51
90.0
  0
ARC
  5
83AA
330
5F6E
100
AcDbEntity
  8
粗实线
100
AcDbCircle
 10
1338.439802110776
 20
176.6433130440746
 30
0.0
 40
0.059055
100
AcDbArc
 50
0.000000000000007
 51
90.0
  0
ARC
  5
83AB
330
5F6E
100
AcDbEntity
  8
粗实线
100
AcDbCircle
 10
1357.675984110777
 20
176.6433130440746
 30
0.0
 40
0.059055
100
AcDbArc
 50
90.0
 51
180.0
  0
LINE
  5
83AC
330
5F6E
100
AcDbEntity
  8
虚线
 48
5.0
100
AcDbLine
 10
1338.939054659247
 20
166.898505733614
 30
0.0
 11
1345.701437116388
 21
166.6827030440799
 31
0.0
  0
LINE
  5
83AD
330
5F6E
100
AcDbEntity
  8
粗实线
100
AcDbLine
 10
1338.937263842089
 20
166.8381193344867
 30
0.0
 11
1345.701437116388
 21
166.6236480440748
 31
0.0
  0
LINE
  5
83AE
330
5F6E
100
AcDbEntity
  8
粗实线
100
AcDbLine
 10
1326.557936110773
 20
176.7614230440704
 30
0.0
 11
1327.439824110776
 21
176.7614230440704
 31
0.0
  0
LINE
  5
83AF
330
5F6E
100
AcDbEntity
  8
虚线
 48
5.0
100
AcDbLine
 10
1327.557934110779
 20
176.6433130440746
 30
0.0
 11
1327.557934110779
 21
169.1483966785199
 31
0.0
  0
ARC
  5
83B0
330
5F6E
100
AcDbEntity
  8
虚线
 48
5.0
100
AcDbCircle
 10
1327.951634110773
 20
169.1483966785199
 30
0.0
 40
0.3937
100
AcDbArc
 50
180.0
 51
268.1721843348532
  0
LINE
  5
83B1
330
5F6E
100
AcDbEntity
  8
虚线
 48
5.0
100
AcDbLine
 10
1327.939076659254
 20
168.7548969956587
 30
0.0
 11
1330.201468116377
 21
168.6826990440786
 31
0.0
  0
LINE
  5
83B2
330
5F6E
100
AcDbEntity
  8
虚线
 48
5.0
100
AcDbLine
 10
1337.55791411078
 20
169.1483966785199
 30
0.0
 11
1337.55791411078
 21
176.6433130440746
 31
0.0
  0
LINE
  5
83B3
330
5F6E
100
AcDbEntity
  8
粗实线
100
AcDbLine
 10
1327.439824110776
 20
176.7614230440704
 30
0.0
 11
1337.676024110776
 21
176.7614230440704
 31
0.0
  0
LINE
  5
83B4
330
5F6E
100
AcDbEntity
  8
虚线
 48
5.0
100
AcDbLine
 10
1330.274464110777
 20
168.6826990440786
 30
0.0
 11
1334.841384110775
 21
168.6826990440786
 31
0.0
  0
ARC
  5
83B5
330
5F6E
100
AcDbEntity
  8
虚线
 48
5.0
100
AcDbCircle
 10
1330.201468116377
 20
168.5645890440683
 30
0.0
 40
0.11811
100
AcDbArc
 50
26.56505106334983
 51
89.99999998957795
  0
ARC
  5
83B6
330
5F6E
100
AcDbEntity
  8
虚线
 48
5.0
100
AcDbCircle
 10
1334.914380105182
 20
168.5645890440683
 30
0.0
 40
0.11811
100
AcDbArc
 50
90.0
 51
153.4349486763861
  0
ARC
  5
83B7
330
5F6E
100
AcDbEntity
  8
虚线
 48
5.0
100
AcDbCircle
 10
1330.42907210798
 20
168.5055340440776
 30
0.0
 40
0.059055
100
AcDbArc
 50
206.5650516552814
 51
269.9999999470561
  0
ARC
  5
83B8
330
5F6E
100
AcDbEntity
  8
虚线
 48
5.0
100
AcDbCircle
 10
1334.686776113579
 20
168.5055340440776
 30
0.0
 40
0.059055
100
AcDbArc
 50
270.000000052944
 51
333.4349477760914
  0
LINE
  5
83B9
330
5F6E
100
AcDbEntity
  8
虚线
 48
5.0
100
AcDbLine
 10
1334.739596511331
 20
168.4791238452053
 30
0.0
 11
1334.808739309649
 21
168.6174094418566
 31
0.0
  0
LINE
  5
83BA
330
5F6E
100
AcDbEntity
  8
虚线
 48
5.0
100
AcDbLine
 10
1330.42907210798
 20
168.4464790440725
 30
0.0
 11
1330.786274110781
 21
168.4464790440725
 31
0.0
  0
LINE
  5
83BB
330
5F6E
100
AcDbEntity
  8
虚线
 48
5.0
100
AcDbLine
 10
1334.329574110779
 20
168.3874240440673
 30
0.0
 11
1334.329574110779
 21
168.4464790440725
 31
0.0
  0
LINE
  5
83BC
330
5F6E
100
AcDbEntity
  8
虚线
 48
5.0
100
AcDbLine
 10
1330.376251710229
 20
168.4791238452053
 30
0.0
 11
1330.307108911903
 21
168.6174094418566
 31
0.0
  0
LINE
  5
83BD
330
5F6E
100
AcDbEntity
  8
虚线
 48
5.0
100
AcDbLine
 10
1330.786274110774
 20
168.3874240440673
 30
0.0
 11
1330.786274110774
 21
168.4464790440725
 31
0.0
  0
LINE
  5
83BE
330
5F6E
100
AcDbEntity
  8
虚线
 48
5.0
100
AcDbLine
 10
1334.329574110779
 20
168.4464790440725
 30
0.0
 11
1334.686776113579
 21
168.4464790440725
 31
0.0
  0
LINE
  5
83BF
330
5F6E
100
AcDbEntity
  8
虚线
 48
5.0
100
AcDbLine
 10
1330.786274110774
 20
168.4464790440725
 30
0.0
 11
1334.329574110779
 21
168.4464790440725
 31
0.0
  0
LINE
  5
83C0
330
5F6E
100
AcDbEntity
  8
粗实线
100
AcDbLine
 10
1330.323431312462
 20
168.452713646333
 30
0.0
 11
1330.254288514144
 21
168.5909992429697
 31
0.0
  0
ARC
  5
83C1
330
5F6E
100
AcDbEntity
  8
粗实线
100
AcDbCircle
 10
1330.201468116377
 20
168.5645890440683
 30
0.0
 40
0.059055
100
AcDbArc
 50
26.56505106334983
 51
89.99999998957795
  0
LINE
  5
83C2
330
5F6E
100
AcDbEntity
  8
粗实线
100
AcDbLine
 10
1327.937285842089
 20
168.6954343537545
 30
0.0
 11
1330.201468116377
 21
168.6236440440734
 31
0.0
  0
ARC
  5
83C3
330
5F6E
100
AcDbEntity
  8
粗实线
100
AcDbCircle
 10
1330.42907210798
 20
168.5055340440776
 30
0.0
 40
0.11811
100
AcDbArc
 50
206.5650516552814
 51
269.9999999470561
  0
LINE
  5
83C4
330
5F6E
100
AcDbEntity
  8
粗实线
100
AcDbLine
 10
1330.42907210798
 20
168.3874240440673
 30
0.0
 11
1330.786274110781
 21
168.3874240440673
 31
0.0
  0
LINE
  5
83C5
330
5F6E
100
AcDbEntity
  8
粗实线
100
AcDbLine
 10
1330.786274110774
 20
168.3874240440673
 30
0.0
 11
1334.329574110779
 21
168.3874240440673
 31
0.0
  0
LINE
  5
83C6
330
5F6E
100
AcDbEntity
  8
粗实线
100
AcDbLine
 10
1334.329574110779
 20
168.3874240440673
 30
0.0
 11
1334.686776113579
 21
168.3874240440673
 31
0.0
  0
ARC
  5
83C7
330
5F6E
100
AcDbEntity
  8
粗实线
100
AcDbCircle
 10
1334.686776113579
 20
168.5055340440776
 30
0.0
 40
0.11811
100
AcDbArc
 50
270.000000052944
 51
333.4349477760914
  0
LINE
  5
83C8
330
5F6E
100
AcDbEntity
  8
粗实线
100
AcDbLine
 10
1334.792416909097
 20
168.452713646333
 30
0.0
 11
1334.861559707416
 21
168.5909992429697
 31
0.0
  0
ARC
  5
83C9
330
5F6E
100
AcDbEntity
  8
粗实线
100
AcDbCircle
 10
1334.914380105182
 20
168.5645890440683
 30
0.0
 40
0.059055
100
AcDbArc
 50
90.0
 51
153.4349486763861
  0
LINE
  5
83CA
330
5F6E
100
AcDbEntity
  8
粗实线
100
AcDbLine
 10
1337.616969110778
 20
169.1479619409983
 30
0.0
 11
1337.616969110778
 21
176.6433130440746
 31
0.0
  0
LINE
  5
83CB
330
5F6E
100
AcDbEntity
  8
粗实线
100
AcDbLine
 10
1326.557936110773
 20
176.7023680440652
 30
0.0
 11
1327.439824110776
 21
176.7023680440652
 31
0.0
  0
LINE
  5
83CC
330
5F6E
100
AcDbEntity
  8
粗实线
100
AcDbLine
 10
1327.498879110774
 20
176.6433130440746
 30
0.0
 11
1327.498879110774
 21
169.1479619409838
 31
0.0
  0
ARC
  5
83CD
330
5F6E
100
AcDbEntity
  8
粗实线
100
AcDbCircle
 10
1327.951634110773
 20
169.1479619409838
 30
0.0
 40
0.452755
100
AcDbArc
 50
180.0
 51
268.183934118559
  0
LINE
  5
83CE
330
5F6E
100
AcDbEntity
  8
粗实线
100
AcDbLine
 10
1326.557936110773
 20
176.7614230440704
 30
0.0
 11
1326.557936110773
 21
176.7023680440652
 31
0.0
  0
ARC
  5
83CF
330
5F6E
100
AcDbEntity
  8
虚线
 48
5.0
100
AcDbCircle
 10
1327.439824110776
 20
176.6433130440746
 30
0.0
 40
0.11811
100
AcDbArc
 50
0.000000000000007
 51
90.0
  0
ARC
  5
83D0
330
5F6E
100
AcDbEntity
  8
虚线
 48
5.0
100
AcDbCircle
 10
1337.676024110776
 20
176.6433130440746
 30
0.0
 40
0.11811
100
AcDbArc
 50
90.0
 51
180.0
  0
ARC
  5
83D1
330
5F6E
100
AcDbEntity
  8
粗实线
100
AcDbCircle
 10
1337.676024110776
 20
176.6433130440746
 30
0.0
 40
0.059055
100
AcDbArc
 50
90.0
 51
180.0
  0
ARC
  5
83D2
330
5F6E
100
AcDbEntity
  8
粗实线
100
AcDbCircle
 10
1327.439824110776
 20
176.6433130440746
 30
0.0
 40
0.059055
100
AcDbArc
 50
0.000000000000007
 51
90.0
  0
LINE
  5
83D3
330
5F6E
100
AcDbEntity
  8
虚线
 48
5.0
100
AcDbLine
 10
1337.176771562305
 20
168.7548969956587
 30
0.0
 11
1334.914380105168
 21
168.6826990440786
 31
0.0
  0
ARC
  5
83D4
330
5F6E
100
AcDbEntity
  8
虚线
 48
5.0
100
AcDbCircle
 10
1337.164214110779
 20
169.1483966785199
 30
0.0
 40
0.3937
100
AcDbArc
 50
271.8278156651468
 51
0.000000000000007
  0
LINE
  5
83D5
330
5F6E
100
AcDbEntity
  8
粗实线
100
AcDbLine
 10
1337.178562379463
 20
168.6954343537545
 30
0.0
 11
1334.914380105168
 21
168.6236440440734
 31
0.0
  0
ARC
  5
83D6
330
5F6E
100
AcDbEntity
  8
粗实线
100
AcDbCircle
 10
1337.164214110779
 20
169.1479619409983
 30
0.0
 40
0.452755
100
AcDbArc
 50
271.816065881441
 51
0.000000000000007
  0
LINE
  5
83D7
330
5F6E
100
AcDbEntity
  8
粗实线
100
AcDbLine
 10
1337.164214110779
 20
151.0239333197276
 30
0.0
 11
1334.2573715959
 21
148.4152284986955
 31
0.0
  0
REGION
  5
83D8
330
5F6E
100
AcDbEntity
  8
粗实线
100
AcDbModelerGeometry
 70
     1
  1
koo nn n o          
  1
ni ^ *+0;:,4 ^ *+0\^ [ nh ^ LR nmqoqnqgmo QK o  
  1
mjqlffffffffffffff fqfffffffffffffffj:rooh n:rono 
  1
=0;& {rn {n {rn {rn |
  1
3*2/ {rn {rn {m {o |
  1
,7:33 {rn {rn {rn {l {rn {n |
  1
9><: {rn {rn {k {m {rn {j 90-(>-; ;0*=3: 0*+ |
  1
300/ {rn {rn {i {l |
  1
/3>1:r,*-9><: {rn nllmqjjhfmknnohhim nkiqgfoogllnfhmfml o o o n roqolflhoooooooooooom o o -:):-,:@) V V V V |
  1
<0:;8: {rn {i {i {rn {h -:):-,:; {k {rn |
  1
:;8: {rn {g {g {i {f 90-(>-; |
  1
):-+:' {rn {h {no |
  1
:336/,:r<*-): {rn nllmqjjhfmknnohhim nkiqgfoogllnfhmfml o ro ro rn rmqmglkiooooooooool o o n V V |
  1
/061+ {rn nlloqmhkkiknnohhhk nkiqgfoogllnfhmfml o |
  0
LINE
  5
83D9
330
5F6E
100
AcDbEntity
  8
粗实线
100
AcDbLine
 10
1357.164174110773
 20
151.0239333197276
 30
0.0
 11
1350.137140083126
 21
147.8339697533554
 31
0.0
  0
REGION
  5
83DA
330
5F6E
100
AcDbEntity
  8
粗实线
100
AcDbModelerGeometry
 70
     1
  1
koo nn n o          
  1
ni ^ *+0;:,4 ^ *+0\^ [ nh ^ LR nmqoqnqgmo QK o  
  1
mjqlffffffffffffff fqfffffffffffffffj:rooh n:rono 
  1
=0;& {rn {n {rn {rn |
  1
3*2/ {rn {rn {m {o |
  1
,7:33 {rn {rn {rn {l {rn {n |
  1
9><: {rn {rn {k {m {rn {j 90-(>-; ;0*=3: 0*+ |
  1
300/ {rn {rn {i {l |
  1
/3>1:r,*-9><: {rn nlkgqojhgflnnohhl nkiqgfoogllnfhmfml o o o n roqolflhoooooooooooom o o -:):-,:@) V V V V |
  1
<0:;8: {rn {i {i {rn {h -:):-,:; {k {rn |
  1
:;8: {rn {g {g {i {f 90-(>-; |
  1
):-+:' {rn {h {no |
  1
:336/,:r<*-): {rn nlkgqojhgflnnohhl nkiqgfoogllnfhmfml o ro ro rn rmqmglkiooooooooool o o n V V |
  1
/061+ {rn nlkjqhhkkllnnohhkm nkiqgfoogllnfhmfml o |
  0
LINE
  5
83DB
330
5F6E
100
AcDbEntity
  8
粗实线
100
AcDbLine
 10
1357.624803110774
 20
134.4176673197396
 30
0.0
 11
1327.491005110779
 21
134.4176673197396
 31
0.0
  0
LINE
  5
83DC
330
5F6E
100
AcDbEntity
  8
粗实线
100
AcDbLine
 10
1326.557936110773
 20
135.3507363197311
 30
0.0
 11
1326.557936110773
 21
151.4845623197359
 31
0.0
  0
LINE
  5
83DD
330
5F6E
100
AcDbEntity
  8
粗实线
100
AcDbLine
 10
1327.491005110779
 20
134.4176673197396
 30
0.0
 11
1326.557936110773
 21
135.3507363197311
 31
0.0
1001
GENIUS_GENFIL_13
1070
     0
1040
23.7
1040
23.7
1040
0.0
1040
0.0
1002
{
1002
}
1001
GENIUS_GENOBJ-N-CHA_13
1002
{
1000
OWNER
1000
GEN
1002
}
1001
GENIUS_GENODEF_13
1002
{
1000
HIER
1070
     0
1002
}
1002
{
1000
MANEDIT
1070
     0
1002
}
1002
{
1000
NOSEL
1070
     0
1002
}
1002
{
1000
BEHIND
1070
     0
1002
}
1002
{
1000
OTHER
1070
     0
1002
}
1002
{
1000
REACTOR
1002
}
  0
LINE
  5
83DE
330
5F6E
100
AcDbEntity
  8
粗实线
100
AcDbLine
 10
1327.491005110779
 20
152.4176313197274
 30
0.0
 11
1326.557936110773
 21
151.4845623197359
 31
0.0
1001
GENIUS_GENFIL_13
1070
     0
1040
23.7
1040
23.7
1040
0.0
1040
0.0
1002
{
1002
}
1001
GENIUS_GENOBJ-N-CHA_13
1002
{
1000
OWNER
1000
GEN
1002
}
1001
GENIUS_GENODEF_13
1002
{
1000
HIER
1070
     0
1002
}
1002
{
1000
MANEDIT
1070
     0
1002
}
1002
{
1000
NOSEL
1070
     0
1002
}
1002
{
1000
BEHIND
1070
     0
1002
}
1002
{
1000
OTHER
1070
     0
1002
}
1002
{
1000
REACTOR
1002
}
  0
LINE
  5
83DF
330
5F6E
100
AcDbEntity
  8
粗实线
100
AcDbLine
 10
1358.557872110773
 20
151.4845623197359
 30
0.0
 11
1358.557872110773
 21
135.3507363197311
 31
0.0
  0
LINE
  5
83E0
330
5F6E
100
AcDbEntity
  8
粗实线
100
AcDbLine
 10
1357.624803110774
 20
134.4176673197396
 30
0.0
 11
1358.557872110773
 21
135.3507363197311
 31
0.0
1001
GENIUS_GENFIL_13
1070
     0
1040
23.7
1040
23.7
1040
0.0
1040
0.0
1002
{
1002
}
1001
GENIUS_GENODEF_13
1002
{
1000
HIER
1070
     0
1002
}
1002
{
1000
MANEDIT
1070
     0
1002
}
1002
{
1000
NOSEL
1070
     0
1002
}
1002
{
1000
BEHIND
1070
     0
1002
}
1002
{
1000
OTHER
1070
     0
1002
}
1002
{
1000
REACTOR
1002
}
1001
GENIUS_GENOBJ-N-CHA_13
1002
{
1000
OWNER
1000
GEN
1002
}
  0
LINE
  5
83E1
330
5F6E
100
AcDbEntity
  8
粗实线
100
AcDbLine
 10
1327.491005110779
 20
152.4176313197274
 30
0.0
 11
1357.624803110774
 21
152.4176313197274
 31
0.0
  0
LINE
  5
83E2
330
5F6E
100
AcDbEntity
  8
粗实线
100
AcDbLine
 10
1358.557872110773
 20
151.4845623197359
 30
0.0
 11
1357.624803110774
 21
152.4176313197274
 31
0.0
1001
GENIUS_GENFIL_13
1070
     0
1040
23.7
1040
23.7
1040
0.0
1040
0.0
1002
{
1002
}
1001
GENIUS_GENODEF_13
1002
{
1000
HIER
1070
     0
1002
}
1002
{
1000
MANEDIT
1070
     0
1002
}
1002
{
1000
NOSEL
1070
     0
1002
}
1002
{
1000
BEHIND
1070
     0
1002
}
1002
{
1000
OTHER
1070
     0
1002
}
1002
{
1000
REACTOR
1002
}
1001
GENIUS_GENOBJ-N-CHA_13
1002
{
1000
OWNER
1000
GEN
1002
}
  0
LINE
  5
83E3
330
5F6E
100
AcDbEntity
  8
粗实线
100
AcDbLine
 10
1357.557874110774
 20
151.0239333197276
 30
0.0
 11
1357.557874110774
 21
135.8113653197394
 31
0.0
  0
ARC
  5
83E4
330
5F6E
100
AcDbEntity
  8
粗实线
100
AcDbCircle
 10
1357.164174110773
 20
135.8113653197394
 30
0.0
 40
0.3937
100
AcDbArc
 50
270.0
 51
0.000000000000007
  0
LINE
  5
83E5
330
5F6E
100
AcDbEntity
  8
粗实线
100
AcDbLine
 10
1357.164174110773
 20
135.4176653197389
 30
0.0
 11
1338.95161211078
 21
135.4176653197389
 31
0.0
  0
LINE
  5
83E6
330
5F6E
100
AcDbEntity
  8
粗实线
100
AcDbLine
 10
1338.95161211078
 20
151.4176333197281
 30
0.0
 11
1357.164174110773
 21
151.4176333197281
 31
0.0
  0
ARC
  5
83E7
330
5F6E
100
AcDbEntity
  8
粗实线
100
AcDbCircle
 10
1357.164174110773
 20
151.0239333197276
 30
0.0
 40
0.3937
100
AcDbArc
 50
0.000000000000007
 51
90.0
  0
LINE
  5
83E8
330
5F6E
100
AcDbEntity
  8
粗实线
100
AcDbLine
 10
1338.557912110779
 20
135.8113653197394
 30
0.0
 11
1338.557912110779
 21
151.0239333197276
 31
0.0
  0
ARC
  5
83E9
330
5F6E
100
AcDbEntity
  8
粗实线
100
AcDbCircle
 10
1338.95161211078
 20
135.8113653197394
 30
0.0
 40
0.3937
100
AcDbArc
 50
180.0
 51
270.0
  0
ARC
  5
83EA
330
5F6E
100
AcDbEntity
  8
粗实线
100
AcDbCircle
 10
1338.95161211078
 20
151.0239333197276
 30
0.0
 40
0.3937
100
AcDbArc
 50
90.0
 51
180.0
  0
LINE
  5
83EB
330
5F6E
100
AcDbEntity
  8
粗实线
100
AcDbLine
 10
1337.55791411078
 20
151.0239333197276
 30
0.0
 11
1337.55791411078
 21
135.8113653197394
 31
0.0
  0
ARC
  5
83EC
330
5F6E
100
AcDbEntity
  8
粗实线
100
AcDbCircle
 10
1337.164214110779
 20
135.8113653197394
 30
0.0
 40
0.3937
100
AcDbArc
 50
270.0
 51
0.000000000000007
  0
LINE
  5
83ED
330
5F6E
100
AcDbEntity
  8
粗实线
100
AcDbLine
 10
1337.164214110779
 20
135.4176653197389
 30
0.0
 11
1327.951634110773
 21
135.4176653197389
 31
0.0
  0
LINE
  5
83EE
330
5F6E
100
AcDbEntity
  8
粗实线
100
AcDbLine
 10
1327.951634110773
 20
151.4176333197281
 30
0.0
 11
1337.164214110779
 21
151.4176333197281
 31
0.0
  0
ARC
  5
83EF
330
5F6E
100
AcDbEntity
  8
粗实线
100
AcDbCircle
 10
1337.164214110779
 20
151.0239333197276
 30
0.0
 40
0.3937
100
AcDbArc
 50
0.000000000000007
 51
90.0
  0
LINE
  5
83F0
330
5F6E
100
AcDbEntity
  8
粗实线
100
AcDbLine
 10
1327.557934110779
 20
135.8113653197394
 30
0.0
 11
1327.557934110772
 21
151.0239333197276
 31
0.0
  0
ARC
  5
83F1
330
5F6E
100
AcDbEntity
  8
粗实线
100
AcDbCircle
 10
1327.951634110773
 20
135.8113653197394
 30
0.0
 40
0.3937
100
AcDbArc
 50
180.0
 51
270.0
  0
ARC
  5
83F2
330
5F6E
100
AcDbEntity
  8
粗实线
100
AcDbCircle
 10
1327.951634110773
 20
151.0239333197276
 30
0.0
 40
0.3937
100
AcDbArc
 50
90.0
 51
180.0
  0
LINE
  5
83F3
330
5F6E
100
AcDbEntity
  8
粗实线
100
AcDbLine
 10
1346.607929633762
 20
145.1260551207122
 30
0.0
 11
1338.95161211078
 21
135.8113653197394
 31
0.0
  0
LINE
  5
83F4
330
5F6E
100
AcDbEntity
  8
粗实线
100
AcDbLine
 10
1338.95161211078
 20
151.0239333197276
 30
0.0
 11
1345.978646138427
 21
147.8339697533554
 31
0.0
  0
LINE
  5
83F5
330
5F6E
100
AcDbEntity
  8
粗实线
100
AcDbLine
 10
1327.951634110773
 20
151.0239333197276
 30
0.0
 11
1330.858476625653
 21
148.4152284986955
 31
0.0
  0
LINE
  5
83F6
330
5F6E
100
AcDbEntity
  8
粗实线
100
AcDbLine
 10
1327.951634110773
 20
135.8113653197394
 30
0.0
 11
1331.681266615632
 21
144.781609651927
 31
0.0
  0
LINE
  5
83F7
330
5F6E
100
AcDbEntity
  8
粗实线
100
AcDbLine
 10
1337.164214110779
 20
135.8113653197394
 30
0.0
 11
1333.434581605913
 21
144.781609651927
 31
0.0
  0
LINE
  5
83F8
330
5F6E
100
AcDbEntity
  8
0
100
AcDbLine
 10
1349.507856587791
 20
145.1260551207122
 30
0.0
 11
1357.164174110773
 21
135.8113653197394
 31
0.0
  0
CIRCLE
  5
83F9
330
5F6E
100
AcDbEntity
  8
0
100
AcDbCircle
 10
1348.057893110773
 20
146.8900833197292
 30
0.0
 40
2.16535
  0
CIRCLE
  5
83FA
330
5F6E
100
AcDbEntity
  8
0
100
AcDbCircle
 10
1348.057893110773
 20
146.8900833197292
 30
0.0
 40
1.77165
  0
CIRCLE
  5
83FB
330
5F6E
100
AcDbEntity
  8
0
100
AcDbCircle
 10
1332.557924110776
 20
146.8900833197292
 30
0.0
 40
2.16535
  0
CIRCLE
  5
83FC
330
5F6E
100
AcDbEntity
  8
0
100
AcDbCircle
 10
1332.557924110776
 20
146.8900833197292
 30
0.0
 40
1.77165
  0
LINE
  5
83FD
330
5F6E
100
AcDbEntity
  8
粗实线
100
AcDbLine
 10
1357.675984110777
 20
176.7023680440652
 30
0.0
 11
1327.439824110776
 21
176.7023680440652
 31
0.0
  0
LINE
  5
83FE
330
5F6E
100
AcDbEntity
  8
粗实线
100
AcDbLine
 10
1350.414349105179
 20
166.6236480440748
 30
0.0
 11
1345.701437116374
 21
166.6236480440748
 31
0.0
  0
LINE
  5
83FF
330
5F6E
100
AcDbEntity
  8
粗实线
100
AcDbLine
 10
1334.914380105182
 20
168.6236440440734
 30
0.0
 11
1330.201468116377
 21
168.6236440440734
 31
0.0
  0
DIMENSION
  5
8400
330
5F6E
100
AcDbEntity
  8
标注
100
AcDbDimension
  2
*D360
 10
1338.55791211078
 20
132.4682662313487
 30
0.0
 11
1348.057893110777
 21
132.4682662313487
 31
0.0
 70
    32
 71
     5
 42
18.99996199999396
  3
副本STANDARD
100
AcDbAlignedDimension
 13
1357.557874110774
 23
135.8113653197394
 33
0.0
 14
1338.55791211078
 24
135.8113653197394
 34
0.0
 50
180.0
100
AcDbRotatedDimension
  0
DIMENSION
  5
8401
330
5F6E
100
AcDbEntity
  8
标注
100
AcDbDimension
  2
*D361
 10
1327.557934110773
 20
132.4682662313487
 30
0.0
 11
1332.557924110777
 21
132.4682662313487
 31
0.0
 70
    32
 71
     5
 42
9.999980000007553
  3
副本STANDARD
100
AcDbAlignedDimension
 13
1337.55791411078
 23
135.8113653197394
 33
0.0
 14
1327.557934110773
 24
135.8113653197394
 34
0.0
 50
180.0
100
AcDbRotatedDimension
  0
DIMENSION
  5
8404
330
5F6E
100
AcDbEntity
  8
标注
100
AcDbDimension
  2
*D364
 10
1326.557936110773
 20
130.5617782770771
 30
0.0
 11
1342.557904110773
 21
130.5617782770771
 31
0.0
 70
    32
 71
     5
 42
31.99993600000016
  3
副本STANDARD
100
AcDbAlignedDimension
 13
1358.557872110773
 23
135.3507363197311
 33
0.0
 14
1326.557936110773
 24
135.4176653197389
 34
0.0
 50
180.0
100
AcDbRotatedDimension
  0
DIMENSION
  5
8405
330
5F6E
100
AcDbEntity
  8
标注
100
AcDbDimension
  2
*D365
 10
1360.565674223908
 20
166.8077030440654
 30
0.0
 11
1360.565674223908
 21
171.7845630440681
 31
0.0
 70
    32
 71
     5
 42
9.953720000004977
  3
副本STANDARD
100
AcDbAlignedDimension
 13
1358.55787211078
 23
176.7614230440704
 33
0.0
 14
1358.132405949393
 24
166.8077030440654
 34
0.0
 50
90.0
100
AcDbRotatedDimension
  0
DIMENSION
  5
8406
330
5F6E
100
AcDbEntity
  8
标注
100
AcDbDimension
  2
*D366
 10
1325.061838877659
 20
168.8076990440682
 30
0.0
 11
1325.061838877659
 21
172.7845610440695
 31
0.0
 70
    32
 71
     5
 42
7.953724000002125
  3
副本STANDARD
100
AcDbAlignedDimension
 13
1326.557936110773
 23
176.7614230440704
 33
0.0
 14
1327.002166523863
 24
168.8076990440682
 34
0.0
 50
90.0
100
AcDbRotatedDimension
  0
DIMENSION
  5
8407
330
5F6E
100
AcDbEntity
  8
标注
100
AcDbDimension
  2
*D367
 10
1357.164174110781
 20
167.2920054164607
 30
0.0
 11
1356.438021908683
 21
168.2574425976964
 31
0.0
 70
   164
 71
     5
 42
0.3936999999998534
  3
副本STANDARD
100
AcDbRadialDimension
 15
1357.48965731621
 25
167.0705096535589
 35
0.0
 40
0.0
1001
ACAD
1000
DSTYLE
1002
{
1070
   288
1070
     1
1002
}
1001
ACAD_DSTYLE_DIMRADIAL_EXTENSION
1070
   387
1070
     1
1070
   388
1040
3.141592653589793
1070
   390
1040
4.680487578908349
  0
DIMENSION
  5
8408
330
5F6E
100
AcDbEntity
  8
标注
100
AcDbDimension
  2
*D368
 10
1357.164174110773
 20
135.8113653197393
 30
0.0
 11
1356.596545847498
 21
137.0259860166479
 31
0.0
 70
   164
 71
     5
 42
0.3936999999999671
  3
副本STANDARD
100
AcDbRadialDimension
 15
1357.431053756548
 25
135.5219263025511
 35
0.0
 40
0.0
1001
ACAD
1000
DSTYLE
1002
{
1070
   288
1070
     1
1002
}
1001
ACAD_DSTYLE_DIMRADIAL_EXTENSION
1070
   387
1070
     1
1070
   388
1040
3.141592653589793
1070
   390
1040
4.712388980384689
  0
LINE
  5
84CA
330
5F6E
100
AcDbEntity
  8
中心线
  6
Continuous
 62
     1
100
AcDbLine
 10
1357.636699065935
 20
104.5549508948641
 30
0.0
 11
1357.636699065935
 21
119.7675188948667
 31
0.0
  0
ARC
  5
84CB
330
5F6E
100
AcDbEntity
  8
中心线
  6
Continuous
 62
     1
100
AcDbCircle
 10
1357.164259065937
 20
104.5549508948641
 30
0.0
 40
0.4724400000000001
100
AcDbArc
 50
270.0
 51
0.0
  0
ARC
  5
84CC
330
5F6E
100
AcDbEntity
  8
中心线
  6
Continuous
 62
     1
100
AcDbCircle
 10
1357.164259065937
 20
119.7675188948667
 30
0.0
 40
0.4724400000000001
100
AcDbArc
 50
0.0
 51
90.0
  0
LINE
  5
84CD
330
5F6E
100
AcDbEntity
  8
中心线
  6
Continuous
 62
     1
100
AcDbLine
 10
1327.951719065937
 20
104.0825108948663
 30
0.0
 11
1357.164259065937
 21
104.0825108948663
 31
0.0
  0
LINE
  5
84CE
330
5F6E
100
AcDbEntity
  8
中心线
  6
Continuous
 62
     1
100
AcDbLine
 10
1357.164259065937
 20
120.2399588948644
 30
0.0
 11
1327.951719065937
 21
120.2399588948644
 31
0.0
  0
ARC
  5
84CF
330
5F6E
100
AcDbEntity
  8
中心线
  6
Continuous
 62
     1
100
AcDbCircle
 10
1327.951719065937
 20
119.7675188948667
 30
0.0
 40
0.4724400000000001
100
AcDbArc
 50
90.0
 51
180.0
  0
LINE
  5
84D0
330
5F6E
100
AcDbEntity
  8
中心线
  6
Continuous
 62
     1
100
AcDbLine
 10
1327.479279065932
 20
119.7675188948667
 30
0.0
 11
1327.479279065932
 21
104.5549508948641
 31
0.0
  0
ARC
  5
84D1
330
5F6E
100
AcDbEntity
  8
中心线
  6
Continuous
 62
     1
100
AcDbCircle
 10
1327.951719065937
 20
104.5549508948641
 30
0.0
 40
0.4724400000000001
100
AcDbArc
 50
180.0
 51
270.0
  0
DIMENSION
  5
84D2
330
5F6E
100
AcDbEntity
  8
标注
100
AcDbDimension
  2
*D369
 10
1357.636699065935
 20
101.7184338723259
 30
0.0
 11
1342.557989065934
 21
101.7184338723259
 31
0.0
 70
    32
 71
     5
 42
30.15742000000319
  3
副本STANDARD
100
AcDbAlignedDimension
 13
1327.479279065932
 23
104.5549508948641
 33
0.0
 14
1357.636699065935
 24
104.5549508948641
 34
0.0
100
AcDbRotatedDimension
  0
DIMENSION
  5
84D3
330
5F6E
100
AcDbEntity
  8
标注
100
AcDbDimension
  2
*D370
 10
1360.042019634844
 20
120.2399588948644
 30
0.0
 11
1360.042019634844
 21
112.1612348948656
 31
0.0
 70
    32
 71
     5
 42
16.15744799999812
  3
副本STANDARD
100
AcDbAlignedDimension
 13
1357.164259065937
 23
104.0825108948663
 33
0.0
 14
1357.164259065937
 24
120.2399588948644
 34
0.0
 50
90.0
100
AcDbRotatedDimension
  0
TEXT
  5
8502
330
5F6E
100
AcDbEntity
  8
标注
100
AcDbText
 10
1344.370711422363
 20
96.84643742701716
 30
0.0
 40
0.7874015748031497
  1
 CUTOUT
100
AcDbText
  0
LINE
  5
8503
330
5F6E
100
AcDbEntity
  8
中心线
  6
Continuous
 62
     1
100
AcDbLine
 10
1336.705305341796
 20
97.09963889432197
 30
0.0
 11
1342.92211034588
 21
97.09963889432197
 31
0.0
  0
DIMENSION
  5
8504
330
5F6E
100
AcDbEntity
  8
标注
100
AcDbDimension
  2
*D371
 10
1360.463589412187
 20
151.4176333197281
 30
0.0
 11
1360.463589412187
 21
143.4176493197337
 31
0.0
 70
    32
 71
     5
 42
15.99996799998919
  3
副本STANDARD
100
AcDbAlignedDimension
 13
1357.16417411078
 23
135.4176653197389
 33
0.0
 14
1357.16417411078
 24
151.4176333197281
 34
0.0
 50
90.0
100
AcDbRotatedDimension
  0
DIMENSION
  5
8505
330
5F6E
100
AcDbEntity
  8
标注
100
AcDbDimension
  2
*D372
 10
1362.243518204396
 20
152.4176313197274
 30
0.0
 11
1362.243518204396
 21
143.4176493197337
 31
0.0
 70
    32
 71
     5
 42
17.99996399998781
  3
副本STANDARD
100
AcDbAlignedDimension
 13
1357.55787411078
 23
134.4176673197396
 33
0.0
 14
1357.55787411078
 24
152.4176313197274
 34
0.0
 50
90.0
100
AcDbRotatedDimension
  0
TEXT
  5
8534
330
5F6E
100
AcDbEntity
  8
标注
100
AcDbText
 10
1337.885162934847
 20
162.8097212292351
 30
0.0
 40
0.7874015748031497
  1
FRONT VIEW
100
AcDbText
  0
TEXT
  5
8535
330
5F6E
100
AcDbEntity
  8
标注
100
AcDbText
 10
1337.380317407745
 20
126.5352597287473
 30
0.0
 40
0.7874015748031497
  1
OVERHEAD VIEW
100
AcDbText
  0
DIMENSION
  5
8542
330
5F6E
100
AcDbEntity
  8
标注
100
AcDbDimension
  2
*D373
 10
1327.951719065937
 20
104.5549508948639
 30
0.0
 11
1328.410811814514
 21
105.6648430557718
 31
0.0
 70
   164
 71
     5
 42
0.4724400000001197
  3
副本STANDARD
100
AcDbRadialDimension
 15
1327.657757946763
 25
104.1851044212911
 35
0.0
 40
0.0
1001
ACAD
1000
DSTYLE
1002
{
1070
   288
1070
     1
1002
}
1001
ACAD_DSTYLE_DIMRADIAL_EXTENSION
1070
   387
1070
     1
1070
   388
1040
3.141592653589793
1070
   390
1040
4.712388980384689
  0
DIMENSION
  5
854C
330
5F6E
100
AcDbEntity
  8
标注
100
AcDbDimension
  2
*D374
 10
1327.951634110773
 20
135.8113653197393
 30
0.0
 11
1328.408682626187
 21
137.1794756043873
 31
0.0
 70
   164
 71
     5
 42
0.3936999999999671
  3
副本STANDARD
100
AcDbRadialDimension
 15
1327.726464945164
 25
135.4884124797476
 35
0.0
 40
0.0
1001
ACAD
1000
DSTYLE
1002
{
1070
   288
1070
     1
1002
}
1001
ACAD_DSTYLE_DIMRADIAL_EXTENSION
1070
   387
1070
     1
1070
   388
1040
3.141592653589793
1070
   390
1040
4.712388980384689
  0
DIMENSION
  5
8556
330
5F6E
100
AcDbEntity
  8
标注
100
AcDbDimension
  2
*D375
 10
1338.951612110779
 20
135.8113653197392
 30
0.0
 11
1339.647745716931
 21
136.7688207237757
 31
0.0
 70
   164
 71
     5
 42
0.3936999999991713
  3
副本STANDARD
100
AcDbRadialDimension
 15
1338.618651714749
 25
135.601277089049
 35
0.0
 40
0.0
1001
ACAD
1000
DSTYLE
1002
{
1070
   288
1070
     1
1002
}
1001
ACAD_DSTYLE_DIMRADIAL_EXTENSION
1070
   387
1070
     1
1070
   388
1040
3.141592653589793
1070
   390
1040
4.712388980384689
  0
ENDSEC
  0
SECTION
  2
OBJECTS
  0
DICTIONARY
  5
5F06
330
0
100
AcDbDictionary
281
     1
  3
ACAD_COLOR
350
5F64
  3
ACAD_GROUP
350
5F07
  3
ACAD_LAYOUT
350
5F63
  3
ACAD_MATERIAL
350
5F0A
  3
ACAD_MLEADERSTYLE
350
5F67
  3
ACAD_MLINESTYLE
350
5F60
  3
ACAD_PLOTSETTINGS
350
5F62
  3
ACAD_PLOTSTYLENAME
350
5F08
  3
ACAD_SCALELIST
350
5F34
  3
ACAD_TABLESTYLE
350
5F65
  3
ACAD_VISUALSTYLE
350
5F23
  3
ACDB_RECOMPOSE_DATA
350
85B6
  3
AcDbVariableDictionary
350
6102
  3
DWGPROPS
350
85B7
  3
lxx_dict
350
60F2
  0
DICTIONARY
  5
61B7
330
5EFC
100
AcDbDictionary
280
     1
281
     1
  3
ACAD_LAYERSTATES
360
61B8
  0
DICTIONARY
  5
60F4
330
5F56
100
AcDbDictionary
280
     1
281
     1
  3
ADSK_XREC_LAYER_RECONCILED
360
60F5
  0
DICTIONARY
  5
60F6
330
5F72
100
AcDbDictionary
280
     1
281
     1
  3
ADSK_XREC_LAYER_RECONCILED
360
60F7
  0
DICTIONARY
  5
60F8
330
5F7D
100
AcDbDictionary
280
     1
281
     1
  3
ADSK_XREC_LAYER_RECONCILED
360
60F9
  0
DICTIONARY
  5
60FA
330
5F7E
100
AcDbDictionary
280
     1
281
     1
  3
ADSK_XREC_LAYER_RECONCILED
360
60FB
  0
DICTIONARY
  5
7BC2
330
7BC1
100
AcDbDictionary
280
     1
281
     1
  0
DICTIONARY
  5
7D7C
330
7D7B
100
AcDbDictionary
280
     1
281
     1
  0
DICTIONARY
  5
7F4C
330
7F4B
100
AcDbDictionary
280
     1
281
     1
  0
DICTIONARY
  5
654F
330
5F6E
100
AcDbDictionary
280
     1
281
     1
  3
ACAD_SORTENTS
360
6550
  0
DICTIONARY
  5
5F64
102
{ACAD_REACTORS
330
5F06
102
}
330
5F06
100
AcDbDictionary
281
     1
  0
DICTIONARY
  5
5F07
102
{ACAD_REACTORS
330
5F06
102
}
330
5F06
100
AcDbDictionary
281
     1
  0
DICTIONARY
  5
5F63
102
{ACAD_REACTORS
330
5F06
102
}
330
5F06
100
AcDbDictionary
281
     1
  3
Model
350
5F71
  3
布局1
350
5F6D
  0
DICTIONARY
  5
5F0A
102
{ACAD_REACTORS
330
5F06
102
}
330
5F06
100
AcDbDictionary
281
     1
  3
ByBlock
350
5F13
  3
ByLayer
350
5F0B
  3
Global
350
5F1B
  0
DICTIONARY
  5
5F67
102
{ACAD_REACTORS
330
5F06
102
}
330
5F06
100
AcDbDictionary
281
     1
  3
Standard
350
5F68
  0
DICTIONARY
  5
5F60
102
{ACAD_REACTORS
330
5F06
102
}
330
5F06
100
AcDbDictionary
281
     1
  3
Standard
350
5F61
  0
DICTIONARY
  5
5F62
102
{ACAD_REACTORS
330
5F06
102
}
330
5F06
100
AcDbDictionary
281
     1
  0
ACDBDICTIONARYWDFLT
  5
5F08
102
{ACAD_REACTORS
330
5F06
102
}
330
5F06
100
AcDbDictionary
281
     1
  3
Normal
350
5F09
100
AcDbDictionaryWithDefault
340
5F09
  0
DICTIONARY
  5
5F34
102
{ACAD_REACTORS
330
5F06
102
}
330
5F06
100
AcDbDictionary
281
     1
  3
A0
350
5F35
  3
A1
350
5F36
  3
A2
350
5F37
  3
A3
350
5F38
  3
A4
350
5F39
  3
A5
350
5F3A
  3
A6
350
5F3B
  3
A7
350
5F3C
  3
A8
350
5F3D
  3
A9
350
5F3E
  3
B0
350
5F3F
  3
B1
350
5F40
  3
B2
350
5F41
  3
B3
350
5F42
  3
B4
350
5F43
  3
B5
350
5F44
  3
B6
350
5F45
  3
B7
350
5F46
  3
B8
350
5F47
  3
B9
350
5F48
  3
C0
350
5F49
  3
C1
350
5F4A
  3
C2
350
5F4B
  3
C3
350
5F4C
  3
C4
350
5F4D
  3
C5
350
5F4E
  3
C6
350
5F4F
  3
C7
350
5F50
  3
C8
350
5F51
  3
C9
350
5F52
  3
D0
350
5F53
  3
D1
350
5F54
  3
D2
350
5F55
  0
DICTIONARY
  5
5F65
102
{ACAD_REACTORS
330
5F06
102
}
330
5F06
100
AcDbDictionary
281
     1
  3
Standard
350
5F66
  0
DICTIONARY
  5
5F23
102
{ACAD_REACTORS
330
5F06
102
}
330
5F06
100
AcDbDictionary
281
     1
  3
2dWireframe
350
5F29
  3
3D Hidden
350
5F2B
  3
3dWireframe
350
5F2A
  3
Basic
350
5F28
  3
Brighten
350
5F2F
  3
ColorChange
350
5F33
  3
Conceptual
350
5F2C
  3
Dim
350
5F2E
  3
Facepattern
350
5F32
  3
Flat
350
5F24
  3
FlatWithEdges
350
5F25
  3
Gouraud
350
5F26
  3
GouraudWithEdges
350
5F27
  3
Linepattern
350
5F31
  3
Realistic
350
5F2D
  3
Thicken
350
5F30
  0
XRECORD
  5
85B6
102
{ACAD_REACTORS
330
5F06
102
}
330
5F06
100
AcDbXrecord
280
     1
 90
        1
330
5F66
  0
DICTIONARY
  5
6102
102
{ACAD_REACTORS
330
5F06
102
}
330
5F06
100
AcDbDictionary
281
     1
  3
CANNOSCALE
350
6105
  3
CMLEADERSTYLE
350
6104
  3
CTABLESTYLE
350
6103
  3
DIMASSOC
350
6108
  3
INDEXCTL
350
6107
  3
SORTENTS
350
6106
  0
XRECORD
  5
85B7
102
{ACAD_REACTORS
330
5F06
102
}
330
5F06
100
AcDbXrecord
280
     1
  1
DWGPROPS COOKIE
  2

  3

  4

  6

  7

  8
Administrator
  9

300
=
301
=
302
=
303
=
304
=
305
=
306
=
307
=
308
=
309
=
 40
0.6922958217592594
 41
2455434.724808658
 42
2458562.706475289
  1

 90
        0
  0
DICTIONARY
  5
60F2
102
{ACAD_REACTORS
330
5F06
102
}
330
5F06
100
AcDbDictionary
281
     1
  3
lxx_dimth
350
60F3
  0
DICTIONARY
  5
61B8
102
{ACAD_REACTORS
330
61B7
102
}
330
61B7
100
AcDbDictionary
281
     1
  0
XRECORD
  5
60F5
102
{ACAD_REACTORS
330
60F4
102
}
330
60F4
100
AcDbXrecord
280
     1
290
     1
  0
XRECORD
  5
60F7
102
{ACAD_REACTORS
330
60F6
102
}
330
60F6
100
AcDbXrecord
280
     1
290
     1
  0
XRECORD
  5
60F9
102
{ACAD_REACTORS
330
60F8
102
}
330
60F8
100
AcDbXrecord
280
     1
290
     1
  0
XRECORD
  5
60FB
102
{ACAD_REACTORS
330
60FA
102
}
330
60FA
100
AcDbXrecord
280
     1
290
     1
  0
SORTENTSTABLE
  5
6550
102
{ACAD_REACTORS
330
654F
102
}
330
654F
100
AcDbSortentsTable
330
5F6E
  0
LAYOUT
  5
5F71
102
{ACAD_XDICTIONARY
360
85BE
102
}
102
{ACAD_REACTORS
330
5F63
102
}
330
5F63
100
AcDbPlotSettings
  1

  2
\\192.168.1.64\Canon LBP2900
  4
A4
  6

 40
5.873749732971191
 41
6.805061340332031
 42
5.873748779296875
 43
4.857757568359375
 44
209.9733276367187
 45
296.9259948730469
 46
0.0
 47
0.0
 48
0.0
 49
0.0
140
0.0
141
0.0
142
1.0
143
22.50920977447151
 70
 11952
 72
     0
 73
     1
 74
     0
  7

 75
     0
147
0.0444262597407633
148
-26332.96073918523
149
-1147.872668404557
100
AcDbLayout
  1
Model
 70
     1
 71
     0
 10
0.0
 20
0.0
 11
12.0
 21
9.0
 12
0.0
 22
0.0
 32
0.0
 14
0.0
 24
0.0
 34
0.0
 15
0.0
 25
0.0
 35
0.0
146
0.0
 13
0.0
 23
0.0
 33
0.0
 16
1.0
 26
0.0
 36
0.0
 17
0.0
 27
1.0
 37
0.0
 76
     0
330
5F6E
331
5F73
1001
ACAD_PSEXT
1000
\\192.168.1.64\Canon LBP2900
1000
Canon LBP2900
1000
\\192.168.1.64
1000

1070
     0
  0
LAYOUT
  5
5F6D
102
{ACAD_XDICTIONARY
360
85BC
102
}
102
{ACAD_REACTORS
330
5F63
102
}
330
5F63
100
AcDbPlotSettings
  1

  2
\\192.168.1.64\Canon LBP2900
  4

  6

 40
0.0
 41
0.0
 42
0.0
 43
0.0
 44
0.0
 45
0.0
 46
0.0
 47
0.0
 48
0.0
 49
0.0
140
0.0
141
0.0
142
1.0
143
1.0
 70
   688
 72
     0
 73
     0
 74
     5
  7

 75
    16
147
1.0
148
0.0
149
0.0
100
AcDbLayout
  1
布局1
 70
     1
 71
     1
 10
0.0
 20
0.0
 11
12.0
 21
9.0
 12
0.0
 22
0.0
 32
0.0
 14
1.000000000000000E+20
 24
1.000000000000000E+20
 34
1.000000000000000E+20
 15
-1.000000000000000E+20
 25
-1.000000000000000E+20
 35
-1.000000000000000E+20
146
0.0
 13
0.0
 23
0.0
 33
0.0
 16
1.0
 26
0.0
 36
0.0
 17
0.0
 27
1.0
 37
0.0
 76
     0
330
5F6A
  0
MATERIAL
  5
5F13
102
{ACAD_XDICTIONARY
360
5F14
102
}
102
{ACAD_REACTORS
330
5F0A
102
}
330
5F0A
100
AcDbMaterial
  1
ByBlock
 72
     0
 43
0.0208333333333333
 43
0.0
 43
0.0
 43
0.0
 43
0.0
 43
0.0208333333333333
 43
0.0
 43
0.0
 43
0.0
 43
0.0
 43
1.0
 43
0.0
 43
0.0
 43
0.0
 43
0.0
 43
1.0
 77
     0
 47
0.0208333333333333
 47
0.0
 47
0.0
 47
0.0
 47
0.0
 47
0.0208333333333333
 47
0.0
 47
0.0
 47
0.0
 47
0.0
 47
1.0
 47
0.0
 47
0.0
 47
0.0
 47
0.0
 47
1.0
171
     0
 49
0.0208333333333333
 49
0.0
 49
0.0
 49
0.0
 49
0.0
 49
0.0208333333333333
 49
0.0
 49
0.0
 49
0.0
 49
0.0
 49
1.0
 49
0.0
 49
0.0
 49
0.0
 49
0.0
 49
1.0
175
     0
142
0.0208333333333333
142
0.0
142
0.0
142
0.0
142
0.0
142
0.0208333333333333
142
0.0
142
0.0
142
0.0
142
0.0
142
1.0
142
0.0
142
0.0
142
0.0
142
0.0
142
1.0
179
     0
144
0.0208333333333333
144
0.0
144
0.0
144
0.0
144
0.0
144
0.0208333333333333
144
0.0
144
0.0
144
0.0
144
0.0
144
1.0
144
0.0
144
0.0
144
0.0
144
0.0
144
1.0
147
0.0208333333333333
147
0.0
147
0.0
147
0.0
147
0.0
147
0.0208333333333333
147
0.0
147
0.0
147
0.0
147
0.0
147
1.0
147
0.0
147
0.0
147
0.0
147
0.0
147
1.0
  0
MATERIAL
  5
5F0B
102
{ACAD_XDICTIONARY
360
5F0C
102
}
102
{ACAD_REACTORS
330
5F0A
102
}
330
5F0A
100
AcDbMaterial
  1
ByLayer
 72
     0
 43
0.0208333333333333
 43
0.0
 43
0.0
 43
0.0
 43
0.0
 43
0.0208333333333333
 43
0.0
 43
0.0
 43
0.0
 43
0.0
 43
1.0
 43
0.0
 43
0.0
 43
0.0
 43
0.0
 43
1.0
 77
     0
 47
0.0208333333333333
 47
0.0
 47
0.0
 47
0.0
 47
0.0
 47
0.0208333333333333
 47
0.0
 47
0.0
 47
0.0
 47
0.0
 47
1.0
 47
0.0
 47
0.0
 47
0.0
 47
0.0
 47
1.0
171
     0
 49
0.0208333333333333
 49
0.0
 49
0.0
 49
0.0
 49
0.0
 49
0.0208333333333333
 49
0.0
 49
0.0
 49
0.0
 49
0.0
 49
1.0
 49
0.0
 49
0.0
 49
0.0
 49
0.0
 49
1.0
175
     0
142
0.0208333333333333
142
0.0
142
0.0
142
0.0
142
0.0
142
0.0208333333333333
142
0.0
142
0.0
142
0.0
142
0.0
142
1.0
142
0.0
142
0.0
142
0.0
142
0.0
142
1.0
179
     0
144
0.0208333333333333
144
0.0
144
0.0
144
0.0
144
0.0
144
0.0208333333333333
144
0.0
144
0.0
144
0.0
144
0.0
144
1.0
144
0.0
144
0.0
144
0.0
144
0.0
144
1.0
147
0.0208333333333333
147
0.0
147
0.0
147
0.0
147
0.0
147
0.0208333333333333
147
0.0
147
0.0
147
0.0
147
0.0
147
1.0
147
0.0
147
0.0
147
0.0
147
0.0
147
1.0
  0
MATERIAL
  5
5F1B
102
{ACAD_XDICTIONARY
360
5F1C
102
}
102
{ACAD_REACTORS
330
5F0A
102
}
330
5F0A
100
AcDbMaterial
  1
Global
 72
     0
 43
0.0208333333333333
 43
0.0
 43
0.0
 43
0.0
 43
0.0
 43
0.0208333333333333
 43
0.0
 43
0.0
 43
0.0
 43
0.0
 43
1.0
 43
0.0
 43
0.0
 43
0.0
 43
0.0
 43
1.0
 77
     0
 47
0.0208333333333333
 47
0.0
 47
0.0
 47
0.0
 47
0.0
 47
0.0208333333333333
 47
0.0
 47
0.0
 47
0.0
 47
0.0
 47
1.0
 47
0.0
 47
0.0
 47
0.0
 47
0.0
 47
1.0
171
     0
 49
0.0208333333333333
 49
0.0
 49
0.0
 49
0.0
 49
0.0
 49
0.0208333333333333
 49
0.0
 49
0.0
 49
0.0
 49
0.0
 49
1.0
 49
0.0
 49
0.0
 49
0.0
 49
0.0
 49
1.0
175
     0
142
0.0208333333333333
142
0.0
142
0.0
142
0.0
142
0.0
142
0.0208333333333333
142
0.0
142
0.0
142
0.0
142
0.0
142
1.0
142
0.0
142
0.0
142
0.0
142
0.0
142
1.0
179
     0
144
0.0208333333333333
144
0.0
144
0.0
144
0.0
144
0.0
144
0.0208333333333333
144
0.0
144
0.0
144
0.0
144
0.0
144
1.0
144
0.0
144
0.0
144
0.0
144
0.0
144
1.0
147
0.0208333333333333
147
0.0
147
0.0
147
0.0
147
0.0
147
0.0208333333333333
147
0.0
147
0.0
147
0.0
147
0.0
147
1.0
147
0.0
147
0.0
147
0.0
147
0.0
147
1.0
  0
MLEADERSTYLE
  5
5F68
102
{ACAD_REACTORS
330
5F67
102
}
330
5F67
100
AcDbMLeaderStyle
170
     2
171
     1
172
     0
 90
        2
 40
0.0
 41
0.0
173
     1
 91
-1056964608
340
5F5C
 92
       -2
290
     1
 42
0.09
291
     1
 43
0.36
  3
Standard
 44
0.18
300

342
5F57
174
     1
178
     6
175
     1
176
     0
 93
-1056964608
 45
0.18
292
     0
297
     0
 46
0.18
 94
-1056964608
 47
1.0
 49
1.0
140
1.0
293
     1
141
0.0
294
     1
177
     0
142
1.0
295
     0
296
     0
143
0.125
1001
ACAD_MLEADERVER
1070
     2
  0
MLINESTYLE
  5
5F61
102
{ACAD_REACTORS
330
5F60
102
}
330
5F60
100
AcDbMlineStyle
  2
STANDARD
 70
     0
  3

 62
   256
 51
90.0
 52
90.0
 71
     2
 49
0.5
 62
   256
  6
BYLAYER
 49
-0.5
 62
   256
  6
BYLAYER
  0
ACDBPLACEHOLDER
  5
5F09
102
{ACAD_REACTORS
330
5F08
102
}
330
5F08
  0
SCALE
  5
5F35
102
{ACAD_REACTORS
330
5F34
102
}
330
5F34
100
AcDbScale
 70
     0
300
1:1
140
1.0
141
1.0
290
     1
  0
SCALE
  5
5F36
102
{ACAD_REACTORS
330
5F34
102
}
330
5F34
100
AcDbScale
 70
     0
300
1:2
140
1.0
141
2.0
290
     0
  0
SCALE
  5
5F37
102
{ACAD_REACTORS
330
5F34
102
}
330
5F34
100
AcDbScale
 70
     0
300
1:4
140
1.0
141
4.0
290
     0
  0
SCALE
  5
5F38
102
{ACAD_REACTORS
330
5F34
102
}
330
5F34
100
AcDbScale
 70
     0
300
1:5
140
1.0
141
5.0
290
     0
  0
SCALE
  5
5F39
102
{ACAD_REACTORS
330
5F34
102
}
330
5F34
100
AcDbScale
 70
     0
300
1:8
140
1.0
141
8.0
290
     0
  0
SCALE
  5
5F3A
102
{ACAD_REACTORS
330
5F34
102
}
330
5F34
100
AcDbScale
 70
     0
300
1:10
140
1.0
141
10.0
290
     0
  0
SCALE
  5
5F3B
102
{ACAD_REACTORS
330
5F34
102
}
330
5F34
100
AcDbScale
 70
     0
300
1:16
140
1.0
141
16.0
290
     0
  0
SCALE
  5
5F3C
102
{ACAD_REACTORS
330
5F34
102
}
330
5F34
100
AcDbScale
 70
     0
300
1:20
140
1.0
141
20.0
290
     0
  0
SCALE
  5
5F3D
102
{ACAD_REACTORS
330
5F34
102
}
330
5F34
100
AcDbScale
 70
     0
300
1:30
140
1.0
141
30.0
290
     0
  0
SCALE
  5
5F3E
102
{ACAD_REACTORS
330
5F34
102
}
330
5F34
100
AcDbScale
 70
     0
300
1:40
140
1.0
141
40.0
290
     0
  0
SCALE
  5
5F3F
102
{ACAD_REACTORS
330
5F34
102
}
330
5F34
100
AcDbScale
 70
     0
300
1:50
140
1.0
141
50.0
290
     0
  0
SCALE
  5
5F40
102
{ACAD_REACTORS
330
5F34
102
}
330
5F34
100
AcDbScale
 70
     0
300
1:100
140
1.0
141
100.0
290
     0
  0
SCALE
  5
5F41
102
{ACAD_REACTORS
330
5F34
102
}
330
5F34
100
AcDbScale
 70
     0
300
2:1
140
2.0
141
1.0
290
     0
  0
SCALE
  5
5F42
102
{ACAD_REACTORS
330
5F34
102
}
330
5F34
100
AcDbScale
 70
     0
300
4:1
140
4.0
141
1.0
290
     0
  0
SCALE
  5
5F43
102
{ACAD_REACTORS
330
5F34
102
}
330
5F34
100
AcDbScale
 70
     0
300
8:1
140
8.0
141
1.0
290
     0
  0
SCALE
  5
5F44
102
{ACAD_REACTORS
330
5F34
102
}
330
5F34
100
AcDbScale
 70
     0
300
10:1
140
10.0
141
1.0
290
     0
  0
SCALE
  5
5F45
102
{ACAD_REACTORS
330
5F34
102
}
330
5F34
100
AcDbScale
 70
     0
300
100:1
140
100.0
141
1.0
290
     0
  0
SCALE
  5
5F46
102
{ACAD_REACTORS
330
5F34
102
}
330
5F34
100
AcDbScale
 70
     0
300
1/128" = 1'-0"
140
0.0078125
141
12.0
290
     0
  0
SCALE
  5
5F47
102
{ACAD_REACTORS
330
5F34
102
}
330
5F34
100
AcDbScale
 70
     0
300
1/64" = 1'-0"
140
0.015625
141
12.0
290
     0
  0
SCALE
  5
5F48
102
{ACAD_REACTORS
330
5F34
102
}
330
5F34
100
AcDbScale
 70
     0
300
1/32" = 1'-0"
140
0.03125
141
12.0
290
     0
  0
SCALE
  5
5F49
102
{ACAD_REACTORS
330
5F34
102
}
330
5F34
100
AcDbScale
 70
     0
300
1/16" = 1'-0"
140
0.0625
141
12.0
290
     0
  0
SCALE
  5
5F4A
102
{ACAD_REACTORS
330
5F34
102
}
330
5F34
100
AcDbScale
 70
     0
300
3/32" = 1'-0"
140
0.09375
141
12.0
290
     0
  0
SCALE
  5
5F4B
102
{ACAD_REACTORS
330
5F34
102
}
330
5F34
100
AcDbScale
 70
     0
300
1/8" = 1'-0"
140
0.125
141
12.0
290
     0
  0
SCALE
  5
5F4C
102
{ACAD_REACTORS
330
5F34
102
}
330
5F34
100
AcDbScale
 70
     0
300
3/16" = 1'-0"
140
0.1875
141
12.0
290
     0
  0
SCALE
  5
5F4D
102
{ACAD_REACTORS
330
5F34
102
}
330
5F34
100
AcDbScale
 70
     0
300
1/4" = 1'-0"
140
0.25
141
12.0
290
     0
  0
SCALE
  5
5F4E
102
{ACAD_REACTORS
330
5F34
102
}
330
5F34
100
AcDbScale
 70
     0
300
3/8" = 1'-0"
140
0.375
141
12.0
290
     0
  0
SCALE
  5
5F4F
102
{ACAD_REACTORS
330
5F34
102
}
330
5F34
100
AcDbScale
 70
     0
300
1/2" = 1'-0"
140
0.5
141
12.0
290
     0
  0
SCALE
  5
5F50
102
{ACAD_REACTORS
330
5F34
102
}
330
5F34
100
AcDbScale
 70
     0
300
3/4" = 1'-0"
140
0.75
141
12.0
290
     0
  0
SCALE
  5
5F51
102
{ACAD_REACTORS
330
5F34
102
}
330
5F34
100
AcDbScale
 70
     0
300
1" = 1'-0"
140
1.0
141
12.0
290
     0
  0
SCALE
  5
5F52
102
{ACAD_REACTORS
330
5F34
102
}
330
5F34
100
AcDbScale
 70
     0
300
1-1/2" = 1'-0"
140
1.5
141
12.0
290
     0
  0
SCALE
  5
5F53
102
{ACAD_REACTORS
330
5F34
102
}
330
5F34
100
AcDbScale
 70
     0
300
3" = 1'-0"
140
3.0
141
12.0
290
     0
  0
SCALE
  5
5F54
102
{ACAD_REACTORS
330
5F34
102
}
330
5F34
100
AcDbScale
 70
     0
300
6" = 1'-0"
140
6.0
141
12.0
290
     0
  0
SCALE
  5
5F55
102
{ACAD_REACTORS
330
5F34
102
}
330
5F34
100
AcDbScale
 70
     0
300
1'-0" = 1'-0"
140
12.0
141
12.0
290
     0
  0
TABLESTYLE
  5
5F66
102
{ACAD_XDICTIONARY
360
85B4
102
}
102
{ACAD_REACTORS
330
5F65
102
}
330
5F65
100
AcDbTableStyle
  3
Standard
 70
     0
 71
     0
 40
0.06
 41
0.06
280
     0
281
     0
  7
STANDARD
140
0.18
170
     2
 62
     0
 63
     7
283
     0
274
    -2
284
     1
 64
     0
275
    -2
285
     1
 65
     0
276
    -2
286
     1
 66
     0
277
    -2
287
     1
 67
     0
278
    -2
288
     1
 68
     0
279
    -2
289
     1
 69
     0
  7
STANDARD
140
0.25
170
     5
 62
     0
 63
     7
283
     0
274
    -2
284
     1
 64
     0
275
    -2
285
     1
 65
     0
276
    -2
286
     1
 66
     0
277
    -2
287
     1
 67
     0
278
    -2
288
     1
 68
     0
279
    -2
289
     1
 69
     0
  7
STANDARD
140
0.18
170
     5
 62
     0
 63
     7
283
     0
274
    -2
284
     1
 64
     0
275
    -2
285
     1
 65
     0
276
    -2
286
     1
 66
     0
277
    -2
287
     1
 67
     0
278
    -2
288
     1
 68
     0
279
    -2
289
     1
 69
     0
  0
VISUALSTYLE
  5
5F29
102
{ACAD_REACTORS
330
5F23
102
}
330
5F23
100
AcDbVisualStyle
  2
2dWireframe
 70
     4
 71
     0
 72
     2
 73
     0
 90
        0
 40
-0.6
 41
-30.0
 62
     5
 63
     7
 74
     1
 91
        4
 64
     7
 65
   257
 75
     1
175
     1
 42
1.0
 92
        0
 66
   257
 43
1.0
 76
     1
 77
     6
 78
     2
 67
     7
 79
     5
170
     0
171
     0
290
     0
174
     0
 93
        1
 44
0.0
173
     0
291
     0
 45
0.0
1001
ACAD
1000
AcDbSavedByObjectVersion
1070
     0
  0
VISUALSTYLE
  5
5F2B
102
{ACAD_REACTORS
330
5F23
102
}
330
5F23
100
AcDbVisualStyle
  2
3D Hidden
 70
     6
 71
     1
 72
     2
 73
     2
 90
        0
 40
-0.6
 41
-30.0
 62
     5
 63
     7
 74
     2
 91
        2
 64
     7
 65
   257
 75
     2
175
     1
 42
40.0
 92
        0
 66
   257
 43
1.0
 76
     1
 77
     6
 78
     2
 67
     7
 79
     3
170
     0
171
     0
290
     0
174
     0
 93
        1
 44
0.0
173
     0
291
     0
 45
0.0
1001
ACAD
1000
AcDbSavedByObjectVersion
1070
     0
  0
VISUALSTYLE
  5
5F2A
102
{ACAD_REACTORS
330
5F23
102
}
330
5F23
100
AcDbVisualStyle
  2
3dWireframe
 70
     5
 71
     0
 72
     2
 73
     0
 90
        0
 40
-0.6
 41
-30.0
 62
     5
 63
     7
 74
     1
 91
        4
 64
     7
 65
   257
 75
     1
175
     1
 42
1.0
 92
        0
 66
   257
 43
1.0
 76
     1
 77
     6
 78
     2
 67
     7
 79
     5
170
     0
171
     0
290
     0
174
     0
 93
        1
 44
0.0
173
     0
291
     0
 45
0.0
1001
ACAD
1000
AcDbSavedByObjectVersion
1070
     0
  0
VISUALSTYLE
  5
5F28
102
{ACAD_REACTORS
330
5F23
102
}
330
5F23
100
AcDbVisualStyle
  2
Basic
 70
     7
 71
     1
 72
     0
 73
     1
 90
        0
 40
-0.6
 41
-30.0
 62
     5
 63
     7
 74
     0
 91
        4
 64
     7
 65
   257
 75
     1
175
     1
 42
1.0
 92
        8
 66
     7
 43
1.0
 76
     1
 77
     6
 78
     2
 67
     7
 79
     5
170
     0
171
     0
290
     0
174
     0
 93
        1
 44
0.0
173
     0
291
     1
 45
0.0
1001
ACAD
1000
AcDbSavedByObjectVersion
1070
     0
  0
VISUALSTYLE
  5
5F2F
102
{ACAD_REACTORS
330
5F23
102
}
330
5F23
100
AcDbVisualStyle
  2
Brighten
 70
    12
 71
     2
 72
     2
 73
     0
 90
        0
 40
-0.6
 41
-30.0
 62
     5
 63
     7
 74
     1
 91
        4
 64
     7
 65
   257
 75
     1
175
     1
 42
1.0
 92
        8
 66
     7
 43
1.0
 76
     1
 77
     6
 78
     2
 67
     7
 79
     5
170
     0
171
     0
290
     0
174
     0
 93
        1
 44
50.0
173
     0
291
     1
 45
0.0
1001
ACAD
1000
AcDbSavedByObjectVersion
1070
     0
  0
VISUALSTYLE
  5
5F33
102
{ACAD_REACTORS
330
5F23
102
}
330
5F23
100
AcDbVisualStyle
  2
ColorChange
 70
    16
 71
     2
 72
     2
 73
     3
 90
        0
 40
-0.6
 41
-30.0
 62
     5
 63
     8
 74
     1
 91
        4
 64
     7
 65
   257
 75
     1
175
     1
 42
1.0
 92
        8
 66
     8
 43
1.0
 76
     1
 77
     6
 78
     2
 67
     7
 79
     5
170
     0
171
     0
290
     0
174
     0
 93
        1
 44
0.0
173
     0
291
     1
 45
0.0
1001
ACAD
1000
AcDbSavedByObjectVersion
1070
     0
  0
VISUALSTYLE
  5
5F2C
102
{ACAD_REACTORS
330
5F23
102
}
330
5F23
100
AcDbVisualStyle
  2
Conceptual
 70
     9
 71
     3
 72
     2
 73
     0
 90
        0
 40
-0.6
 41
-30.0
 62
     5
 63
     7
 74
     2
 91
        2
 64
     7
 65
   257
 75
     1
175
     1
 42
40.0
 92
        8
 66
     7
 43
1.0
 76
     1
 77
     6
 78
     2
 67
     7
 79
     3
170
     0
171
     0
290
     0
174
     0
 93
        1
 44
0.0
173
     0
291
     0
 45
0.0
1001
ACAD
1000
AcDbSavedByObjectVersion
1070
     0
  0
VISUALSTYLE
  5
5F2E
102
{ACAD_REACTORS
330
5F23
102
}
330
5F23
100
AcDbVisualStyle
  2
Dim
 70
    11
 71
     2
 72
     2
 73
     0
 90
        0
 40
-0.6
 41
-30.0
 62
     5
 63
     7
 74
     1
 91
        4
 64
     7
 65
   257
 75
     1
175
     1
 42
1.0
 92
        8
 66
     7
 43
1.0
 76
     1
 77
     6
 78
     2
 67
     7
 79
     5
170
     0
171
     0
290
     0
174
     0
 93
        1
 44
-50.0
173
     0
291
     1
 45
0.0
1001
ACAD
1000
AcDbSavedByObjectVersion
1070
     0
  0
VISUALSTYLE
  5
5F32
102
{ACAD_REACTORS
330
5F23
102
}
330
5F23
100
AcDbVisualStyle
  2
Facepattern
 70
    15
 71
     2
 72
     2
 73
     0
 90
        0
 40
-0.6
 41
-30.0
 62
     5
 63
     7
 74
     1
 91
        4
 64
     7
 65
   257
 75
     1
175
     1
 42
1.0
 92
        8
 66
     7
 43
1.0
 76
     1
 77
     6
 78
     2
 67
     7
 79
     5
170
     0
171
     0
290
     0
174
     0
 93
        1
 44
0.0
173
     0
291
     1
 45
0.0
1001
ACAD
1000
AcDbSavedByObjectVersion
1070
     0
  0
VISUALSTYLE
  5
5F24
102
{ACAD_REACTORS
330
5F23
102
}
330
5F23
100
AcDbVisualStyle
  2
Flat
 70
     0
 71
     2
 72
     1
 73
     1
 90
        2
 40
-0.6
 41
30.0
 62
     5
 63
     7
 74
     0
 91
        4
 64
     7
 65
   257
 75
     1
175
     1
 42
1.0
 92
        8
 66
     7
 43
1.0
 76
     1
 77
     6
 78
     2
 67
     7
 79
     5
170
     0
171
     0
290
     0
174
     0
 93
       13
 44
0.0
173
     0
291
     1
 45
0.0
1001
ACAD
1000
AcDbSavedByObjectVersion
1070
     0
  0
VISUALSTYLE
  5
5F25
102
{ACAD_REACTORS
330
5F23
102
}
330
5F23
100
AcDbVisualStyle
  2
FlatWithEdges
 70
     1
 71
     2
 72
     1
 73
     1
 90
        2
 40
-0.6
 41
30.0
 62
     5
 63
     7
 74
     1
 91
        4
 64
     7
 65
   257
 75
     1
175
     1
 42
1.0
 92
        0
 66
   257
 43
1.0
 76
     1
 77
     6
 78
     2
 67
     7
 79
     5
170
     0
171
     0
290
     0
174
     0
 93
       13
 44
0.0
173
     0
291
     1
 45
0.0
1001
ACAD
1000
AcDbSavedByObjectVersion
1070
     0
  0
VISUALSTYLE
  5
5F26
102
{ACAD_REACTORS
330
5F23
102
}
330
5F23
100
AcDbVisualStyle
  2
Gouraud
 70
     2
 71
     2
 72
     2
 73
     1
 90
        2
 40
-0.6
 41
30.0
 62
     5
 63
     7
 74
     0
 91
        4
 64
     7
 65
   257
 75
     1
175
     1
 42
1.0
 92
        0
 66
     7
 43
1.0
 76
     1
 77
     6
 78
     2
 67
     7
 79
     5
170
     0
171
     0
290
     0
174
     0
 93
       13
 44
0.0
173
     0
291
     1
 45
0.0
1001
ACAD
1000
AcDbSavedByObjectVersion
1070
     0
  0
VISUALSTYLE
  5
5F27
102
{ACAD_REACTORS
330
5F23
102
}
330
5F23
100
AcDbVisualStyle
  2
GouraudWithEdges
 70
     3
 71
     2
 72
     2
 73
     1
 90
        2
 40
-0.6
 41
30.0
 62
     5
 63
     7
 74
     1
 91
        4
 64
     7
 65
   257
 75
     1
175
     1
 42
1.0
 92
        0
 66
   257
 43
1.0
 76
     1
 77
     6
 78
     2
 67
     7
 79
     5
170
     0
171
     0
290
     0
174
     0
 93
       13
 44
0.0
173
     0
291
     1
 45
0.0
1001
ACAD
1000
AcDbSavedByObjectVersion
1070
     0
  0
VISUALSTYLE
  5
5F31
102
{ACAD_REACTORS
330
5F23
102
}
330
5F23
100
AcDbVisualStyle
  2
Linepattern
 70
    14
 71
     2
 72
     2
 73
     0
 90
        0
 40
-0.6
 41
-30.0
 62
     5
 63
     7
 74
     1
 91
        4
 64
     7
 65
   257
 75
     7
175
     7
 42
1.0
 92
        8
 66
     7
 43
1.0
 76
     1
 77
     6
 78
     2
 67
     7
 79
     5
170
     0
171
     0
290
     0
174
     0
 93
        1
 44
0.0
173
     0
291
     1
 45
0.0
1001
ACAD
1000
AcDbSavedByObjectVersion
1070
     0
  0
VISUALSTYLE
  5
5F2D
102
{ACAD_REACTORS
330
5F23
102
}
330
5F23
100
AcDbVisualStyle
  2
Realistic
 70
     8
 71
     2
 72
     2
 73
     0
 90
        0
 40
-0.6
 41
-30.0
 62
     5
 63
     7
 74
     1
 91
        0
 64
     7
 65
   257
 75
     1
175
     1
 42
1.0
 92
        8
 66
     8
 43
1.0
 76
     1
 77
     6
 78
     2
 67
     7
 79
     5
170
     0
171
     0
290
     0
174
     0
 93
       13
 44
0.0
173
     0
291
     0
 45
0.0
1001
ACAD
1000
AcDbSavedByObjectVersion
1070
     0
  0
VISUALSTYLE
  5
5F30
102
{ACAD_REACTORS
330
5F23
102
}
330
5F23
100
AcDbVisualStyle
  2
Thicken
 70
    13
 71
     2
 72
     2
 73
     0
 90
        0
 40
-0.6
 41
-30.0
 62
     5
 63
     7
 74
     1
 91
        4
 64
     7
 65
   257
 75
     1
175
     1
 42
1.0
 92
       12
 66
     7
 43
1.0
 76
     1
 77
     6
 78
     2
 67
     7
 79
     5
170
     0
171
     0
290
     0
174
     0
 93
        1
 44
0.0
173
     0
291
     1
 45
0.0
1001
ACAD
1000
AcDbSavedByObjectVersion
1070
     0
  0
DICTIONARYVAR
  5
6105
102
{ACAD_REACTORS
330
6102
102
}
330
6102
100
DictionaryVariables
280
     0
  1
1:1
  0
DICTIONARYVAR
  5
6104
102
{ACAD_REACTORS
330
6102
102
}
330
6102
100
DictionaryVariables
280
     0
  1
STANDARD
  0
DICTIONARYVAR
  5
6103
102
{ACAD_REACTORS
330
6102
102
}
330
6102
100
DictionaryVariables
280
     0
  1
STANDARD
  0
DICTIONARYVAR
  5
6108
102
{ACAD_REACTORS
330
6102
102
}
330
6102
100
DictionaryVariables
280
     0
  1
1
  0
DICTIONARYVAR
  5
6107
102
{ACAD_REACTORS
330
6102
102
}
330
6102
100
DictionaryVariables
280
     0
  1
0
  0
DICTIONARYVAR
  5
6106
102
{ACAD_REACTORS
330
6102
102
}
330
6102
100
DictionaryVariables
280
     0
  1
127
  0
VLO-VL
  5
60F3
102
{ACAD_REACTORS
330
60F2
102
}
330
60F2
100
vlo_VL
 90
   -64512
 91
       12
 92
        1
 40
2.5
300
(&VLO-R . 0)
  0
DICTIONARY
  5
85BE
330
5F71
100
AcDbDictionary
280
     1
281
     1
  3
ACAD_XREC_ROUNDTRIP
360
85BF
  0
DICTIONARY
  5
85BC
330
5F6D
100
AcDbDictionary
280
     1
281
     1
  3
ACAD_XREC_ROUNDTRIP
360
85BD
  0
DICTIONARY
  5
5F14
330
5F13
100
AcDbDictionary
280
     1
281
     1
  3
ACAD_XREC_ROUNDTRIP
360
85B9
  3
BUMPTILE
360
5F16
  3
DIFFUSETILE
360
5F15
  3
OPACITYTILE
360
5F19
  3
REFLECTIONTILE
360
5F18
  3
REFRACTIONTILE
360
5F1A
  3
SPECULARTILE
360
5F17
  0
DICTIONARY
  5
5F0C
330
5F0B
100
AcDbDictionary
280
     1
281
     1
  3
ACAD_XREC_ROUNDTRIP
360
85B8
  3
BUMPTILE
360
5F0E
  3
DIFFUSETILE
360
5F0D
  3
OPACITYTILE
360
5F11
  3
REFLECTIONTILE
360
5F10
  3
REFRACTIONTILE
360
5F12
  3
SPECULARTILE
360
5F0F
  0
DICTIONARY
  5
5F1C
330
5F1B
100
AcDbDictionary
280
     1
281
     1
  3
ACAD_XREC_ROUNDTRIP
360
85BA
  3
BUMPTILE
360
5F1E
  3
DIFFUSETILE
360
5F1D
  3
OPACITYTILE
360
5F21
  3
REFLECTIONTILE
360
5F20
  3
REFRACTIONTILE
360
5F22
  3
SPECULARTILE
360
5F1F
  0
DICTIONARY
  5
85B4
330
5F66
100
AcDbDictionary
280
     1
281
     1
  3
ACAD_ROUNDTRIP_2008_TABLESTYLE_CELLSTYLEMAP
360
85B5
  3
ACAD_XREC_ROUNDTRIP
360
85BB
  0
XRECORD
  5
85BF
102
{ACAD_REACTORS
330
85BE
102
}
330
85BE
100
AcDbXrecord
280
     1
102
SHADEPLOT
 70
     0
102
SHADEPLOTRESLEVEL
 70
     2
102
SHADEPLOTCUSTOMDPI
 70
   300
  0
XRECORD
  5
85BD
102
{ACAD_REACTORS
330
85BC
102
}
330
85BC
100
AcDbXrecord
280
     1
102
SHADEPLOT
 70
     0
102
SHADEPLOTRESLEVEL
 70
     2
102
SHADEPLOTCUSTOMDPI
 70
   300
  0
XRECORD
  5
85B9
102
{ACAD_REACTORS
330
5F14
102
}
330
5F14
100
AcDbXrecord
280
     1
102
MATERIAL
148
0.0
149
0.0
149
0.0
 93
        0
 94
      127
282
     0
 72
     0
 77
     0
171
     0
175
     0
179
     0
273
     0
  0
XRECORD
  5
5F16
102
{ACAD_REACTORS
330
5F14
102
}
330
5F14
100
AcDbXrecord
280
     1
270
     1
271
     1
  0
XRECORD
  5
5F15
102
{ACAD_REACTORS
330
5F14
102
}
330
5F14
100
AcDbXrecord
280
     1
270
     1
271
     1
  0
XRECORD
  5
5F19
102
{ACAD_REACTORS
330
5F14
102
}
330
5F14
100
AcDbXrecord
280
     1
270
     1
271
     1
  0
XRECORD
  5
5F18
102
{ACAD_REACTORS
330
5F14
102
}
330
5F14
100
AcDbXrecord
280
     1
270
     1
271
     1
  0
XRECORD
  5
5F1A
102
{ACAD_REACTORS
330
5F14
102
}
330
5F14
100
AcDbXrecord
280
     1
270
     1
271
     1
  0
XRECORD
  5
5F17
102
{ACAD_REACTORS
330
5F14
102
}
330
5F14
100
AcDbXrecord
280
     1
270
     1
271
     1
  0
XRECORD
  5
85B8
102
{ACAD_REACTORS
330
5F0C
102
}
330
5F0C
100
AcDbXrecord
280
     1
102
MATERIAL
148
0.0
149
0.0
149
0.0
 93
        0
 94
      127
282
     0
 72
     0
 77
     0
171
     0
175
     0
179
     0
273
     0
  0
XRECORD
  5
5F0E
102
{ACAD_REACTORS
330
5F0C
102
}
330
5F0C
100
AcDbXrecord
280
     1
270
     1
271
     1
  0
XRECORD
  5
5F0D
102
{ACAD_REACTORS
330
5F0C
102
}
330
5F0C
100
AcDbXrecord
280
     1
270
     1
271
     1
  0
XRECORD
  5
5F11
102
{ACAD_REACTORS
330
5F0C
102
}
330
5F0C
100
AcDbXrecord
280
     1
270
     1
271
     1
  0
XRECORD
  5
5F10
102
{ACAD_REACTORS
330
5F0C
102
}
330
5F0C
100
AcDbXrecord
280
     1
270
     1
271
     1
  0
XRECORD
  5
5F12
102
{ACAD_REACTORS
330
5F0C
102
}
330
5F0C
100
AcDbXrecord
280
     1
270
     1
271
     1
  0
XRECORD
  5
5F0F
102
{ACAD_REACTORS
330
5F0C
102
}
330
5F0C
100
AcDbXrecord
280
     1
270
     1
271
     1
  0
XRECORD
  5
85BA
102
{ACAD_REACTORS
330
5F1C
102
}
330
5F1C
100
AcDbXrecord
280
     1
102
MATERIAL
148
0.0
149
0.0
149
0.0
 93
        0
 94
      127
282
     0
 72
     0
 77
     0
171
     0
175
     0
179
     0
273
     0
  0
XRECORD
  5
5F1E
102
{ACAD_REACTORS
330
5F1C
102
}
330
5F1C
100
AcDbXrecord
280
     1
270
     1
271
     1
  0
XRECORD
  5
5F1D
102
{ACAD_REACTORS
330
5F1C
102
}
330
5F1C
100
AcDbXrecord
280
     1
270
     1
271
     1
  0
XRECORD
  5
5F21
102
{ACAD_REACTORS
330
5F1C
102
}
330
5F1C
100
AcDbXrecord
280
     1
270
     1
271
     1
  0
XRECORD
  5
5F20
102
{ACAD_REACTORS
330
5F1C
102
}
330
5F1C
100
AcDbXrecord
280
     1
270
     1
271
     1
  0
XRECORD
  5
5F22
102
{ACAD_REACTORS
330
5F1C
102
}
330
5F1C
100
AcDbXrecord
280
     1
270
     1
271
     1
  0
XRECORD
  5
5F1F
102
{ACAD_REACTORS
330
5F1C
102
}
330
5F1C
100
AcDbXrecord
280
     1
270
     1
271
     1
  0
CELLSTYLEMAP
  5
85B5
102
{ACAD_REACTORS
330
85B4
102
}
330
85B4
100
AcDbCellStyleMap
 90
        3
300
CELLSTYLE
  1
TABLEFORMAT_BEGIN
 90
        5
170
     1
 91
        0
 92
    32768
 62
   257
 93
        1
300
CONTENTFORMAT
  1
CONTENTFORMAT_BEGIN
 90
        0
 91
        0
 92
      512
 93
        0
300

 40
0.0
140
1.0
 94
        5
 62
     0
340
5F57
144
0.25
309
CONTENTFORMAT_END
171
     0
 94
        0
309
TABLEFORMAT_END
  1
CELLSTYLE_BEGIN
 90
        1
 91
        1
300
_TITLE
309
CELLSTYLE_END
300
CELLSTYLE
  1
TABLEFORMAT_BEGIN
 90
        5
170
     1
 91
        0
 92
        0
 62
   257
 93
        1
300
CONTENTFORMAT
  1
CONTENTFORMAT_BEGIN
 90
        0
 91
        0
 92
      512
 93
        0
300

 40
0.0
140
1.0
 94
        5
 62
     0
340
5F57
144
0.18
309
CONTENTFORMAT_END
171
     0
 94
        0
309
TABLEFORMAT_END
  1
CELLSTYLE_BEGIN
 90
        2
 91
        1
300
_HEADER
309
CELLSTYLE_END
300
CELLSTYLE
  1
TABLEFORMAT_BEGIN
 90
        5
170
     1
 91
        0
 92
        0
 62
   257
 93
        1
300
CONTENTFORMAT
  1
CONTENTFORMAT_BEGIN
 90
        0
 91
        0
 92
      512
 93
        0
300

 40
0.0
140
1.0
 94
        2
 62
     0
340
5F57
144
0.18
309
CONTENTFORMAT_END
171
     0
 94
        0
309
TABLEFORMAT_END
  1
CELLSTYLE_BEGIN
 90
        3
 91
        2
300
_DATA
309
CELLSTYLE_END
  0
XRECORD
  5
85BB
102
{ACAD_REACTORS
330
85B4
102
}
330
85B4
100
AcDbXrecord
280
     1
102
ACAD_ROUNDTRIP_PRE2007_TABLESTYLE
 90
      512
 91
        0
  1

 92
      512
 93
        0
  2

 94
      512
 95
        0
  3

  0
ENDSEC
  0
EOF
